<?xml version="1.0" standalone="no"?>
<!DOCTYPE svg PUBLIC "-//W3C//DTD SVG 1.1//EN" "http://www.w3.org/Graphics/SVG/1.1/DTD/svg11.dtd" >
<svg xmlns="http://www.w3.org/2000/svg">
<metadata></metadata>
<defs>
<font id="notcouriersansregular" horiz-adv-x="600" >
<font-face units-per-em="1000" ascent="800" descent="-200" />
<missing-glyph horiz-adv-x="500" />
<glyph unicode="&#xfb01;" d="M16 397q0 20 27 20h77v59q0 53 31.5 90.5t75.5 37.5q37 0 75 -15q16 -6 16 -20q0 -8 -5.5 -14t-13.5 -6q-2 0 -13 3q-37 11 -58 11q-28 0 -47.5 -25t-19.5 -62v-59h72q27 0 27 -20q0 -21 -27 -21h-72v-376h-41v376h-77q-27 0 -27 21zM358 397q0 20 27 20h98v-417h-41v376 h-57q-27 0 -27 21zM423 520v104h59v-104h-59z" />
<glyph unicode="&#xfb02;" d="M16 397q0 20 27 20h77v59q0 53 31.5 90.5t75.5 37.5q37 0 75 -15q16 -6 16 -20q0 -8 -5.5 -14t-13.5 -6q-2 0 -13 3q-37 11 -58 11q-28 0 -47.5 -25t-19.5 -62v-59h72q27 0 27 -20q0 -21 -27 -21h-72v-376h-41v376h-77q-27 0 -27 21zM358 584q0 20 27 20h98v-604h-41v563 h-57q-27 0 -27 21z" />
<glyph />
<glyph />
<glyph unicode="&#xd;" />
<glyph unicode=" " />
<glyph unicode="!" d="M240 35q0 21 15.5 35.5t37.5 14.5h13q23 0 38.5 -14.5t15.5 -35.5t-15.5 -35.5t-38.5 -14.5h-13q-22 0 -37.5 14.5t-15.5 35.5zM260 579q0 17 11.5 28t28.5 11q16 0 27.5 -11t11.5 -28q0 -8 -1 -16l-18 -326q-1 -28 -21 -28q-19 0 -20 28l-18 326q-1 7 -1 16z" />
<glyph unicode="&#x22;" d="M146 604h128l-34 -253q-4 -36 -30 -36t-30 36zM326 604h128l-34 -253q-4 -36 -30 -36t-30 36z" />
<glyph unicode="#" d="M92 210q0 20 27 20h89l9 126h-78q-27 0 -27 21q0 20 27 20h81l16 225q1 25 21 25q11 0 16 -8t3 -20l-15 -222h91l16 225q1 25 20 25q22 0 20 -28l-16 -222h89q27 0 27 -20q0 -21 -27 -21h-91l-9 -126h80q27 0 27 -20q0 -21 -27 -21h-83l-16 -225q-1 -26 -21 -26 q-11 0 -15.5 8.5t-3.5 20.5l15 222h-91l-15 -225q-3 -26 -21 -26q-8 0 -14 6t-6 15v8l16 222h-87q-27 0 -27 21zM249 230h91l9 126h-91z" />
<glyph unicode="$" d="M113 92v79q0 27 21 27q17 0 20 -25q3 -32 46.5 -56t98.5 -24q64 0 105.5 30.5t41.5 77.5t-38 71q-28 16 -106 31q-82 15 -119 38q-47 32 -47 94q0 54 40.5 94t103.5 47v52q0 27 21 27q20 0 20 -27v-52q33 -3 55 -12t49 -30q2 29 21 29q20 0 20 -27v-60q0 -27 -20 -27 q-18 0 -21 22q-4 27 -40.5 47t-82.5 20q-52 0 -88.5 -30.5t-36.5 -73.5q0 -41 35 -63q25 -15 100 -29q92 -18 126 -41q49 -33 49 -100q0 -59 -45 -99t-121 -48v-119q0 -27 -20 -27q-21 0 -21 27v119q-35 2 -71 17t-55 37v-16q0 -27 -20 -27q-21 0 -21 27z" />
<glyph unicode="%" d="M87 238q0 14 18 20l379 122q8 2 12 2q7 0 12 -5.5t5 -13.5q0 -13 -18 -19l-379 -122q-7 -3 -12 -3q-6 0 -11.5 6t-5.5 13zM115 487q0 51 36 87.5t86 36.5q52 0 87.5 -36t35.5 -89q0 -50 -36 -86.5t-86 -36.5q-51 0 -87 36.5t-36 87.5zM153 487q0 -35 25 -60.5t60 -25.5 q34 0 59 25.5t25 59.5q0 37 -24.5 62t-60.5 25q-34 0 -59 -25.5t-25 -60.5zM239 112q0 51 36 87.5t86 36.5q52 0 87.5 -36.5t35.5 -89.5q0 -50 -36 -86t-86 -36q-51 0 -87 36.5t-36 87.5zM277 112q0 -35 25 -60.5t60 -25.5q34 0 59 25t25 60q0 37 -24.5 62t-60.5 25 q-35 0 -59.5 -25t-24.5 -61z" />
<glyph unicode="&#x26;" d="M105 142q0 52 29.5 90.5t81.5 54.5q-34 55 -42 73t-8 40q0 49 36.5 84t86.5 35q33 0 66 -20l10 6q10 5 16 5q7 0 13 -6.5t6 -14.5q0 -12 -16 -21l-32 -16q-30 26 -63 26q-32 0 -57 -24.5t-25 -55.5t44 -100l111 -177q31 58 46 128h43q27 0 27 -20q0 -21 -27 -21h-12 q-22 -83 -53 -126l27 -41h38q27 0 27 -20q0 -21 -27 -21h-58l-31 48q-45 -64 -112 -64q-59 0 -102 47t-43 111zM146 142q0 -47 31 -82t72 -35q55 0 89 61l-105 165q-40 -9 -63.5 -38.5t-23.5 -70.5z" />
<glyph unicode="'" d="M236 604h128l-34 -253q-4 -36 -30 -36t-30 36z" />
<glyph unicode="(" d="M294 243q0 157 110 327q21 34 34 34q8 0 14 -6t6 -14q0 -4 -3 -11q-100 -177 -100 -333q0 -153 100 -333q3 -7 3 -11q0 -8 -6.5 -14t-14.5 -6q-13 0 -42 47q-101 168 -101 320z" />
<glyph unicode=")" d="M147 -104q0 4 3 11q100 177 100 333q0 154 -100 333q-3 8 -3 11q0 8 6.5 14t14.5 6q14 0 42 -47q101 -166 101 -320q0 -157 -110 -327q-21 -34 -34 -34q-8 0 -14 6t-6 14z" />
<glyph unicode="*" d="M113 463q0 5 2.5 10t7.5 7.5t10 2.5q3 0 13 -3l133 -42v139q0 27 21 27q20 0 20 -27v-139l133 43q8 3 15 3t13 -6t6 -14q0 -15 -21 -22l-133 -42l81 -112q7 -12 7 -18q0 -8 -6 -14t-14 -6q-10 0 -20 14l-82 112l-81 -112q-11 -14 -21 -14q-4 0 -7.5 1.5t-6.5 4.5t-4.5 7 t-1.5 8q0 6 8 17l81 112l-133 42q-20 5 -20 21z" />
<glyph unicode="+" d="M72 282q0 20 27 20h180v201q0 27 21 27q20 0 20 -27v-201h180q28 0 28 -20q0 -21 -28 -21h-180v-202q0 -27 -20 -27q-21 0 -21 27v202h-180q-27 0 -27 21z" />
<glyph unicode="," d="M135 -116q0 3 2 11l70 250h133l-145 -265q-13 -25 -31 -25q-12 0 -20.5 8.5t-8.5 20.5z" />
<glyph unicode="-" d="M72 279q0 20 27 20h402q27 0 27 -20q0 -21 -27 -21h-402q-27 0 -27 21z" />
<glyph unicode="." d="M226 51q0 28 20 46.5t49 18.5h10q29 0 49 -18.5t20 -46.5t-20 -47t-49 -19h-10q-29 0 -49 19t-20 47z" />
<glyph unicode="/" d="M113 -62q0 7 5 16l327 696q9 18 22 18q8 0 14 -6t6 -13q0 -6 -5 -16l-327 -696q-9 -18 -22 -18q-8 0 -14 6t-6 13z" />
<glyph unicode="0" d="M113 251v100q0 119 52 193t135 74t135 -74t52 -193v-100q0 -118 -52 -192t-135 -74t-135 74t-52 192zM154 257q0 -104 48 -178q34 -53 98 -53t98 53q48 74 48 178v89q0 104 -48 178q-34 53 -98 53t-98 -53q-48 -74 -48 -178v-89z" />
<glyph unicode="1" d="M115 532q0 15 21 22l185 58v-612h-41v557l-132 -42q-12 -3 -14 -3q-7 0 -13 6.5t-6 13.5z" />
<glyph unicode="2" d="M84 0v60l236 222q70 69 91.5 100t21.5 65q0 52 -43 91t-100 39q-51 0 -92.5 -30t-53.5 -75q-6 -20 -21 -20q-7 0 -13 5.5t-6 12.5q0 32 32 72q59 76 154 76q73 0 128.5 -52t55.5 -120q0 -44 -25.5 -81t-118.5 -128q-128 -126 -207 -193v-3h355v-41h-394z" />
<glyph unicode="3" d="M96 69q0 7 6 13t13 6t17 -7q72 -55 159 -55q68 0 117.5 42t49.5 100q0 59 -53 101.5t-126 42.5q-27 0 -27 21q0 20 27 20q64 0 87 11q32 14 51 41t19 58q0 49 -39 81.5t-97 32.5q-88 0 -134 -54q-12 -14 -21 -14q-8 0 -14 5.5t-6 13.5q0 17 35 44q60 46 141 46 q75 0 125.5 -44.5t50.5 -109.5q0 -43 -26.5 -79t-71.5 -55q-1 0 -5 -2q59 -24 92 -66.5t33 -93.5q0 -76 -61.5 -129.5t-147.5 -53.5q-72 0 -148 41q-46 24 -46 43z" />
<glyph unicode="4" d="M105 169v47l228 388h84v-394h34q27 0 27 -21q0 -20 -27 -20h-34v-169h-41v169h-271zM144 210h232v353h-24z" />
<glyph unicode="5" d="M96 82q0 8 6 14t14 6t17 -9q73 -67 160 -67q73 0 119 49t46 128q0 67 -39.5 109t-102.5 42t-126 -33q-16 -8 -22 -8q-19 0 -19 22v269h282q28 0 28 -20q0 -21 -28 -21h-241v-198q73 30 132 30q77 0 127 -55t50 -139q0 -94 -57.5 -155t-146.5 -61q-79 0 -153 49 q-46 30 -46 48z" />
<glyph unicode="6" d="M136 282q0 172 109 265q82 71 183 71q32 0 55.5 -10.5t23.5 -24.5q0 -8 -5.5 -14t-13.5 -6q-7 0 -17 6q-16 8 -47 8q-57 0 -112 -33t-92 -89q-45 -71 -45 -170q0 -5 2 -43q61 122 166 122q68 0 117.5 -55t49.5 -131q0 -81 -50 -137t-123 -56q-89 0 -145 83t-56 214z M183 188q7 -28 9 -33q41 -129 146 -129q56 0 93.5 44t37.5 108q0 59 -37.5 102t-89.5 43q-58 0 -109 -57q-18 -19 -50 -78z" />
<glyph unicode="7" d="M104 563l1 41h373v-65l-163 -519q-7 -21 -20 -21q-8 0 -14 6t-6 14q0 5 2 13l160 513v18h-333z" />
<glyph unicode="8" d="M113 161q0 100 112 152q-102 52 -102 140q0 67 52.5 116t124.5 49t124.5 -49t52.5 -116q0 -88 -102 -140q112 -51 112 -152q0 -73 -55 -124.5t-132 -51.5t-132 51.5t-55 124.5zM154 161q0 -56 42.5 -95.5t103.5 -39.5q60 0 103 39.5t43 94.5q0 57 -42 95t-104 38 q-61 0 -103.5 -38t-42.5 -94zM164 451q0 -49 39.5 -83.5t96.5 -34.5q56 0 96 34t40 83q0 53 -39.5 90t-96.5 37t-96.5 -36.5t-39.5 -89.5z" />
<glyph unicode="9" d="M136 425q0 81 50 137t123 56q89 0 145 -83t56 -214q0 -172 -109 -265q-82 -71 -183 -71q-32 0 -55.5 10.5t-23.5 24.5q0 8 5.5 14t13.5 6q7 0 17 -6q16 -8 47 -8q57 0 112 33t92 89q45 71 45 170q0 5 -2 43q-61 -122 -166 -122q-68 0 -117.5 55t-49.5 131zM177 425 q0 -59 37.5 -102t89.5 -43q58 0 109 57q18 19 50 78q-7 28 -9 33q-41 129 -146 129q-56 0 -93.5 -44t-37.5 -108z" />
<glyph unicode=":" d="M226 51q0 28 20 46.5t49 18.5h10q29 0 49 -18.5t20 -46.5t-20 -47t-49 -19h-10q-29 0 -49 19t-20 47zM226 351q0 28 20 47t49 19h10q29 0 49 -19t20 -47t-20 -47t-49 -19h-10q-29 0 -49 19t-20 47z" />
<glyph unicode=";" d="M139 -116q0 3 2 11l70 250h133l-145 -265q-13 -25 -31 -25q-12 0 -20.5 8.5t-8.5 20.5zM202 351q0 28 20 47t49 19h10q29 0 49 -19t20 -47t-20 -47t-49 -19h-10q-29 0 -49 19t-20 47z" />
<glyph unicode="&#x3c;" d="M72 281l418 232q8 5 12 5q7 0 13.5 -7t6.5 -15q0 -11 -13 -18l-355 -197l355 -197q13 -7 13 -17q0 -8 -6.5 -15.5t-13.5 -7.5q-5 0 -13 5z" />
<glyph unicode="=" d="M51 211q0 20 27 20h444q27 0 27 -20q0 -21 -27 -21h-444q-27 0 -27 21zM51 355q0 20 27 20h444q27 0 27 -20q0 -21 -27 -21h-444q-27 0 -27 21z" />
<glyph unicode="&#x3e;" d="M78 67q0 10 13 17l355 197l-355 197q-13 7 -13 18q0 8 6.5 15t13.5 7q5 0 13 -5l417 -232l-418 -232q-8 -5 -12 -5q-8 0 -14 7t-6 16z" />
<glyph unicode="?" d="M134 461v68q5 2 15.5 6.5t13.5 5.5q81 36 146 36q80 0 129 -42.5t49 -111.5q0 -56 -35.5 -94t-129.5 -82v-41q0 -27 -20 -27q-21 0 -21 27v68q88 37 126.5 71.5t38.5 77.5q0 50 -40 81.5t-102 31.5q-61 0 -129 -34v-41q0 -27 -20 -27q-21 0 -21 27zM230 35q0 22 15.5 36 t41.5 14h27q26 0 41.5 -14t15.5 -36t-16 -36t-41 -14h-27q-26 0 -41.5 14t-15.5 36z" />
<glyph unicode="@" d="M105 198v163q0 114 55 188.5t140 74.5q68 0 113.5 -46t45.5 -115v-277q19 -3 19 -20q0 -21 -27 -21h-33v5q-30 -3 -40 -3q-58 0 -97 36t-39 89q0 63 50 104t126 40v47q0 52 -33 86t-84 34q-68 0 -111.5 -63t-43.5 -162v-160q0 -92 47 -162q39 -57 112 -57q70 0 105 30 q12 11 19 11q8 0 14 -5.5t6 -13.5q0 -23 -47.5 -43t-102.5 -20q-87 0 -140 75q-54 78 -54 185zM283 273q0 -38 27.5 -61.5t70.5 -23.5q21 0 37 4v184q-59 0 -97 -29t-38 -74z" />
<glyph unicode="A" d="M52 0l210 563h68l212 -563h-43l-71 188h-266l-69 -188h-41zM178 229h235l-112 293h-15z" />
<glyph unicode="B" d="M124 0v563h204q73 0 122 -41.5t49 -103.5q0 -74 -85 -120q127 -45 127 -145q0 -63 -48.5 -108t-116.5 -45h-252zM165 41h208q53 0 90 32.5t37 79.5q0 58 -59 93q-44 26 -127 26h-149v-231zM165 313h147q64 0 105 30t41 76q0 44 -37 73.5t-92 29.5h-164v-209z" />
<glyph unicode="C" d="M63 242v83q0 46 19.5 94.5t51.5 82.5q69 74 171 74q39 0 79.5 -11.5t81.5 -48t53 -92.5q0 -27 -21 -27q-18 0 -20 24q-3 46 -54.5 80t-118.5 34q-83 0 -142 -63.5t-59 -152.5v-71q0 -90 65 -156.5t153 -66.5q52 0 93 21t81 69q9 10 18 10q20 0 20 -19q0 -16 -38 -51 q-76 -71 -174 -71q-102 0 -180.5 78.5t-78.5 179.5z" />
<glyph unicode="D" d="M104 0v563h190q95 -1 160.5 -74.5t65.5 -178.5v-56q0 -107 -66 -180.5t-163 -73.5h-187zM145 41h150q72 0 128 62t56 142v73q0 87 -65 154q-50 50 -126 50h-143v-481z" />
<glyph unicode="E" d="M124 0v563h375v-41h-334v-209h186v-41h-186v-231h355v-41h-396z" />
<glyph unicode="F" d="M124 0v563h396v-41h-355v-209h187v-41h-187v-272h-41z" />
<glyph unicode="G" d="M63 244v74q0 53 22 105t59 88q70 65 169 65q29 0 58 -5.5t62 -18.5t56.5 -41t30.5 -66q0 -27 -20 -27q-19 0 -20 25q-3 38 -51 65t-114 27q-84 0 -139 -54q-33 -31 -52.5 -75.5t-19.5 -88.5v-73q0 -102 62 -160.5t170 -58.5q70 0 143 34v150h-139v41h180v-214 q-90 -52 -187 -52q-123 0 -196.5 71t-73.5 189z" />
<glyph unicode="H" d="M126 0v563h41v-250h270v250h41v-563h-41v272h-270v-272h-41z" />
<glyph unicode="I" d="M279 0v563h41v-563h-41z" />
<glyph unicode="J" d="M84 74l41 19q75 -68 148 -68q61 0 103.5 41t42.5 99v398h41v-398q0 -74 -55.5 -127.5t-132.5 -53.5q-48 0 -91 20.5t-97 69.5z" />
<glyph unicode="K" d="M124 0v563h41v-290l326 290h57l-268 -239q52 -21 82.5 -49.5t63 -90t80.5 -184.5h-48q-55 152 -98 211.5t-114 82.5l-81 -73v-221h-41z" />
<glyph unicode="L" d="M186 0v563h41v-522h314v-41h-355z" />
<glyph unicode="M" d="M72 0v563h74l157 -348l154 348h75v-563h-41v522h-8l-157 -353h-46l-159 353h-8v-522h-41z" />
<glyph unicode="N" d="M103 0v563h52l305 -504v504h41v-563h-52l-305 504v-504h-41z" />
<glyph unicode="O" d="M51 280q0 124 72.5 210t176.5 86q106 0 177.5 -86.5t71.5 -213.5q0 -121 -73 -206.5t-176 -85.5q-104 0 -176.5 86t-72.5 210zM92 280q0 -105 61 -180t147 -75q85 0 146.5 74.5t61.5 177.5q0 108 -60.5 183t-147.5 75q-86 0 -147 -75t-61 -180z" />
<glyph unicode="P" d="M124 0v563h186q80 0 134.5 -47.5t54.5 -117.5t-59 -118.5t-144 -48.5h-131v-231h-41zM165 272h134q65 0 112 37t47 89q0 51 -42.5 87.5t-101.5 36.5h-149v-250z" />
<glyph unicode="Q" d="M51 280q0 124 72.5 210t176.5 86t176.5 -86t72.5 -210q0 -123 -70 -208t-174 -88l-54 -40q40 8 67 8q41 0 82 -15q29 -11 45 -11q27 0 69 27q5 4 12 4q8 0 14 -6t6 -15q0 -15 -36.5 -33t-67.5 -18q-18 0 -56 13q-35 13 -68 13q-58 0 -140 -23q-8 -2 -10 -2q-8 0 -14 6 t-6 15q0 10 11 18l90 65q-85 19 -141.5 101.5t-56.5 188.5zM92 280q0 -105 61 -180t147 -75q85 0 146.5 74.5t61.5 177.5q0 108 -60.5 183t-147.5 75q-86 0 -147 -75t-61 -180z" />
<glyph unicode="R" d="M124 0v563h194q73 0 126.5 -46.5t53.5 -109.5q0 -97 -139 -145q49 -33 85.5 -81.5t108.5 -180.5h-48q-66 122 -108.5 173.5t-99.5 77.5h-132v-251h-41zM165 292h114q74 0 126 34t52 82q0 45 -42.5 79.5t-96.5 34.5h-153v-230z" />
<glyph unicode="S" d="M92 139q0 27 21 27q19 0 20 -24q2 -49 51 -83t117 -34q70 0 116.5 36.5t46.5 91.5q0 57 -45 84q-29 19 -116 34q-96 16 -136 46q-52 36 -52 104q0 66 52.5 110.5t131.5 44.5q87 0 137 -48t50 -95q0 -27 -20 -27t-21 24q-3 45 -44 75t-99 30q-62 0 -102.5 -33t-40.5 -82 t39 -76q34 -22 113 -35q98 -17 135 -40q62 -38 62 -118q0 -73 -58 -120t-148 -47q-82 0 -146 48.5t-64 106.5z" />
<glyph unicode="T" d="M72 522v41h456v-41h-207v-522h-41v522h-208z" />
<glyph unicode="U" d="M101 185v378h41v-378q0 -68 45.5 -114t112.5 -46q66 0 112 46.5t46 113.5v378h41v-378q0 -85 -57.5 -143t-141.5 -58q-85 0 -142 57.5t-57 143.5z" />
<glyph unicode="V" d="M51 563h43l202 -522h3l209 522h41l-225 -563h-57z" />
<glyph unicode="W" d="M57 563h41l61 -517l112 392h62l109 -392l62 517h39l-67 -563h-64l-112 400l-115 -400h-63z" />
<glyph unicode="X" d="M52 0l220 288l-211 275h52l187 -242l184 242h52l-211 -275l223 -288h-53l-197 255l-196 -255h-50z" />
<glyph unicode="Y" d="M74 563h49l180 -268l176 268h46l-203 -309v-254h-41v254z" />
<glyph unicode="Z" d="M103 0v59l328 460v3h-310v41h349v-58l-328 -460v-4h355v-41h-394z" />
<glyph unicode="[" d="M280 -124v728h138q27 0 27 -20q0 -21 -27 -21h-97v-646h97q27 0 27 -20q0 -21 -27 -21h-138z" />
<glyph unicode="\" d="M113 649q0 7 6.5 13t14.5 6q12 0 21 -18l327 -696q5 -9 5 -16t-6 -13t-14 -6q-13 0 -22 18l-327 696q-5 10 -5 16z" />
<glyph unicode="]" d="M155 -104q0 21 27 21h97v646h-97q-27 0 -27 20q0 21 27 21h138v-728h-138q-27 0 -27 20z" />
<glyph unicode="^" d="M113 374q0 8 9 18l178 223l178 -223q9 -10 9 -18t-6 -14t-14 -6q-11 0 -20 13l-147 185l-147 -185q-9 -13 -20 -13q-8 0 -14 6t-6 14z" />
<glyph unicode="_" d="M-12 -75h624v-50h-624v50z" />
<glyph unicode="`" d="M155 619q0 8 6 14t14 6q7 0 19 -9l114 -100l7 -8q5 -5 5 -11q0 -9 -6 -15t-15 -6q-7 0 -18 9l-114 100q-12 11 -12 20z" />
<glyph unicode="a" d="M72 112q0 65 58.5 105.5t152.5 40.5q59 0 136 -21v71q0 37 -34 59.5t-89 22.5q-44 0 -142 -30q-8 -2 -10 -2q-8 0 -13.5 6t-5.5 14q0 15 17 21q93 32 157 32q70 0 115.5 -35t45.5 -88v-308h-41v67q-89 -83 -191 -83q-70 0 -113 35.5t-43 92.5zM113 111q0 -39 31 -62.5 t83 -23.5q53 0 97.5 20t94.5 67v90q-60 15 -128 15q-79 0 -128.5 -29.5t-49.5 -76.5z" />
<glyph unicode="b" d="M103 0v604h41v-276q73 103 180 103q91 0 154 -64t63 -157q0 -94 -63.5 -160t-153.5 -66q-110 0 -180 104v-88h-41zM144 208q0 -76 52 -129.5t126 -53.5q73 0 125.5 53t52.5 127q0 78 -51.5 131.5t-126.5 53.5q-74 0 -126 -53t-52 -129z" />
<glyph unicode="c" d="M84 204q0 99 65 163t165 64q26 0 54 -6t59 -19.5t54 -41.5t30 -66q0 -27 -20 -27q-18 0 -21 24q-3 40 -49.5 67.5t-109.5 27.5q-83 0 -134.5 -51.5t-51.5 -133.5q0 -79 52 -129.5t134 -50.5q109 0 187 72q10 10 18 10t13.5 -5.5t5.5 -13.5q0 -20 -43 -49 q-80 -55 -183 -55q-98 0 -161.5 62t-63.5 158z" />
<glyph unicode="d" d="M63 208q0 92 63.5 157.5t152.5 65.5q110 0 182 -104v277h41v-604h-41v89q-71 -105 -182 -105q-89 0 -152.5 66t-63.5 158zM104 208q0 -77 52 -130t127 -53q74 0 126 53t52 128q0 78 -51.5 131t-127.5 53q-74 0 -126 -53t-52 -129z" />
<glyph unicode="e" d="M63 217q0 91 66 152.5t162 61.5q72 0 128.5 -36t83.5 -98q17 -40 17 -98h-416q11 -79 66 -126.5t136 -47.5q47 0 96 15t79 39q10 7 16 7q8 0 13.5 -6t5.5 -14q0 -26 -71.5 -54t-139.5 -28q-101 0 -171.5 68t-70.5 165zM104 240h374q-12 68 -63 109t-124 41t-123 -40.5 t-64 -109.5z" />
<glyph unicode="f" d="M115 397q0 20 27 20h88v61q0 55 43.5 90.5t110.5 35.5q70 0 139 -13q18 -5 18 -20q0 -20 -21 -20q-2 0 -50 6q-54 6 -88 6q-49 0 -80 -23.5t-31 -61.5v-61h189q27 0 27 -20q0 -21 -27 -21h-189v-376h-41v376h-88q-27 0 -27 21z" />
<glyph unicode="g" d="M63 221q0 87 60.5 148.5t145.5 61.5q106 0 171 -97v83h41v-445q0 -58 -43 -104q-51 -54 -122 -54h-114q-27 0 -27 21q0 20 27 20h116q51 0 86.5 36t35.5 87v129q-66 -97 -171 -97q-85 0 -145.5 62t-60.5 149zM104 221q0 -71 49 -120.5t119 -49.5t119 49t49 119 q0 73 -48.5 122t-119.5 49q-70 0 -119 -49t-49 -120z" />
<glyph unicode="h" d="M124 0v604h41v-257q38 46 73 65t81 19q70 0 114.5 -39.5t44.5 -100.5v-291h-41v288q0 46 -38 76q-31 26 -85 26q-42 0 -69.5 -16.5t-68.5 -64.5l-11 -13v-296h-41z" />
<glyph unicode="i" d="M134 397q0 20 27 20h159v-417h-41v376h-118q-27 0 -27 21zM259 520v104h59v-104h-59z" />
<glyph unicode="j" d="M147 -165q0 20 27 20h128q50 0 82.5 33t32.5 84v404h-241q-27 0 -27 21q0 20 27 20h282v-445q0 -70 -43.5 -114t-111.5 -44h-129q-27 0 -27 21zM355 520v104h59v-104h-59z" />
<glyph unicode="k" d="M144 0v604h41v-375l222 188h61l-206 -172l248 -245h-58l-221 219l-46 -39v-180h-41z" />
<glyph unicode="l" d="M135 584q0 20 27 20h158v-604h-41v563h-117q-27 0 -27 21z" />
<glyph unicode="m" d="M72 0v417h40v-52q25 36 49 51t56 15q64 0 97 -71q55 71 113 71q43 0 74 -32t31 -76v-323h-40v319q0 28 -20 49.5t-46 21.5q-50 0 -104 -82v-308h-40v316q0 29 -19.5 51.5t-45.5 22.5q-50 0 -105 -82v-308h-40z" />
<glyph unicode="n" d="M126 0v417h41v-69q43 48 76 65.5t80 17.5q67 0 112 -39t45 -97v-295h-41v288q0 44 -38 76q-31 26 -82 26q-55 0 -95 -33q-18 -13 -57 -63v-294h-41z" />
<glyph unicode="o" d="M72 208q0 92 66.5 157.5t161.5 65.5q96 0 162 -65.5t66 -160.5q0 -92 -67 -156.5t-161 -64.5q-95 0 -161.5 65t-66.5 159zM113 208q0 -76 54.5 -129.5t132.5 -53.5q77 0 132 53t55 127q0 79 -54 132t-133 53q-78 0 -132.5 -53t-54.5 -129z" />
<glyph unicode="p" d="M103 -186v603h41v-82q40 52 81 74t98 22q93 0 155.5 -60.5t62.5 -149.5t-63 -150t-155 -61q-112 0 -179 96v-292h-41zM144 221q0 -71 52 -120.5t126 -49.5t126 49t52 119q0 73 -51 122t-127 49q-74 0 -126 -49.5t-52 -119.5z" />
<glyph unicode="q" d="M63 221q0 89 63 149.5t156 60.5q111 0 179 -96v82h41v-603h-41v292q-67 -96 -180 -96q-92 0 -155 61t-63 150zM104 221q0 -71 51.5 -120.5t126.5 -49.5q74 0 126.5 49t52.5 119q0 73 -51.5 122t-127.5 49q-75 0 -126.5 -49t-51.5 -120z" />
<glyph unicode="r" d="M207 0v417h41v-102q69 63 112 87.5t81 24.5q40 0 77 -31q23 -19 23 -31q0 -9 -6 -15t-15 -6q-8 0 -16 8q-35 34 -66 34q-34 0 -70.5 -24t-119.5 -100v-262h-41z" />
<glyph unicode="s" d="M103 112q0 25 21 25q9 0 14.5 -6t5.5 -16v-7q0 -17 12 -32.5t33 -26.5t49.5 -17.5t59.5 -6.5q66 0 110 26t44 66q0 17 -12 34.5t-32 28.5q-35 19 -108 27q-55 6 -82 12.5t-48 19.5q-21 14 -33.5 35t-12.5 44q0 49 48.5 81t122.5 32q78 0 130 -39q48 -36 48 -75 q0 -23 -20 -24q-18 0 -21 23q-4 34 -40 54t-93 20q-56 0 -93 -21.5t-37 -53.5q0 -27 32 -45q17 -11 34 -14.5t82 -10.5q86 -10 130 -39q23 -16 36.5 -40t13.5 -50q0 -38 -25.5 -68t-70 -47t-100.5 -17q-96 0 -155 50q-43 37 -43 78z" />
<glyph unicode="t" d="M43 397q0 20 28 20h74v119q0 27 21 27q20 0 20 -27v-119h220q27 0 27 -20q0 -21 -27 -21h-220v-267q0 -38 30 -61t82 -23q42 0 89.5 11.5t76.5 28.5q10 6 16 6q7 0 13 -6t6 -14q0 -22 -67.5 -44.5t-131.5 -22.5q-71 0 -113 33.5t-42 89.5v269h-74q-28 0 -28 21z" />
<glyph unicode="u" d="M124 115v302h41v-302q0 -38 26.5 -64t64.5 -26q100 0 183 90v302h41v-417h-41v66q-84 -82 -182 -82q-60 0 -96.5 36t-36.5 95z" />
<glyph unicode="v" d="M80 417h45l168 -376h19l165 376h43l-184 -417h-70z" />
<glyph unicode="w" d="M66 417h40l81 -361l86 255h51l89 -255l78 361h42l-92 -417h-50l-91 259l-89 -259h-51z" />
<glyph unicode="x" d="M44 0l227 219l-205 198h58l176 -171l180 171h55l-206 -198l227 -219h-58l-198 190l-200 -190h-56z" />
<glyph unicode="y" d="M74 417h47l184 -372l181 372h42l-296 -603h-41l91 186z" />
<glyph unicode="z" d="M115 0v36l301 340h-292v41h350v-36l-303 -340h318v-41h-374z" />
<glyph unicode="{" d="M197 240q0 20 24 21q27 2 43.5 19.5t16.5 45.5v173q0 44 28.5 74.5t69.5 30.5q24 0 24 -20q0 -18 -26 -21q-24 -2 -39.5 -20t-15.5 -44v-173q0 -31 -9.5 -49.5t-34.5 -36.5q25 -18 34.5 -36.5t9.5 -49.5v-173q0 -26 15.5 -44t39.5 -20q26 -3 26 -21q0 -20 -24 -20 q-41 0 -69.5 30.5t-28.5 74.5v173q0 27 -16.5 45t-43.5 20q-24 1 -24 21z" />
<glyph unicode="|" d="M280 -97v674q0 27 20 27t20 -27v-674q0 -27 -20 -27t-20 27z" />
<glyph unicode="}" d="M197 -104q0 18 26 21q24 2 39.5 20t15.5 44v173q0 31 9.5 49.5t34.5 36.5q-25 18 -34.5 36.5t-9.5 49.5v173q0 26 -15.5 44t-39.5 20q-26 3 -26 21q0 20 24 20q41 0 69.5 -30.5t28.5 -74.5v-173q0 -27 16.5 -45t43.5 -20q24 -1 24 -21t-24 -21q-27 -2 -43.5 -19.5 t-16.5 -45.5v-173q0 -44 -28.5 -74.5t-69.5 -30.5q-24 0 -24 20z" />
<glyph unicode="~" d="M92 249q0 13 28 45q47 54 92 54q24 0 42 -9t59 -42q54 -44 73 -44q36 0 73 52q17 25 29 25q8 0 14 -5.5t6 -13.5q0 -11 -25 -40q-49 -59 -94 -59q-24 0 -46.5 12.5t-69.5 52.5q-38 30 -61 30q-19 0 -33.5 -11.5t-47.5 -53.5q-9 -12 -20 -12q-7 0 -13 6t-6 13z" />
<glyph unicode="&#xa0;" />
<glyph unicode="&#xa1;" d="M240 367q0 21 15.5 35.5t38.5 14.5h13q22 0 37.5 -14.5t15.5 -35.5t-15.5 -35.5t-37.5 -14.5h-13q-23 0 -38.5 14.5t-15.5 35.5zM261 -177q0 8 1 16l18 326q1 28 21 28q19 0 20 -28l18 -326q1 -7 1 -16q0 -17 -11.5 -28t-28.5 -11q-16 0 -27.5 11t-11.5 28z" />
<glyph unicode="&#xa2;" d="M113 311q0 98 81 152q33 22 86 33v107q0 27 21 27q20 0 20 -27v-106q63 0 104 -36q5 17 20 17q21 0 21 -25v-61q0 -28 -20 -28q-17 0 -20 23q-5 32 -36 51.5t-79 19.5q-68 0 -112.5 -41.5t-44.5 -105.5q0 -63 43.5 -104.5t109.5 -41.5q74 0 125 42q10 8 18 8q19 0 19 -20 t-49 -43t-99 -25v-113q0 -27 -20 -27q-21 0 -21 27v113q-73 8 -120 60.5t-47 123.5z" />
<glyph unicode="&#xa3;" d="M63 294q0 20 27 20h94q-27 85 -27 121q0 59 41.5 101t99.5 42q54 0 98 -39q31 -28 31 -44q0 -7 -6.5 -13t-13.5 -6q-9 0 -18 12q-40 49 -90 49q-41 0 -71 -30.5t-30 -71.5q0 -28 23 -107l4 -14h99q27 0 27 -21q0 -20 -27 -20h-90q5 -35 5 -57q0 -104 -57 -175h252 q19 0 31.5 13.5t13.5 37.5q3 23 21 23q20 0 20 -22q0 -38 -24.5 -65.5t-59.5 -27.5h-323q-27 0 -27 21q0 19 22 19q35 2 62.5 56.5t27.5 123.5q0 27 -4 53h-104q-27 0 -27 21z" />
<glyph unicode="&#xa4;" d="M103 115q0 9 11 20l56 56q-35 47 -35 101q0 59 34 102l-55 56q-11 10 -11 19q0 8 6 14t14 6t19 -11l56 -55q44 35 102 35q57 0 102 -35l55 55q11 11 20 11q8 0 14 -6t6 -15q0 -8 -10 -18l-55 -56q34 -47 34 -101q0 -58 -35 -102l55 -56q10 -10 10 -20q0 -8 -6 -14t-14 -6 q-9 0 -19 11l-56 56q-47 -35 -101 -35q-55 0 -101 35l-57 -56q-10 -11 -18 -11q-9 0 -15 6t-6 14zM176 293q0 -52 36.5 -88.5t87.5 -36.5q50 0 87 36.5t37 86.5q0 53 -36 89.5t-88 36.5q-51 0 -87.5 -36.5t-36.5 -87.5z" />
<glyph unicode="&#xa5;" d="M75 563h47l178 -268l178 268h48l-192 -288h118q21 0 21 -18q0 -19 -21 -19h-131v-60h131q21 0 21 -18q0 -19 -21 -19h-131v-141h-41v141h-130q-22 0 -22 19q0 18 22 18h130v60h-130q-22 0 -22 19q0 18 22 18h116z" />
<glyph unicode="&#xa6;" d="M280 -97v267q0 27 20 27t20 -27v-267q0 -27 -20 -27t-20 27zM280 310v267q0 27 20 27t20 -27v-267q0 -27 -20 -27t-20 27z" />
<glyph unicode="&#xa7;" d="M66 358q0 34 28 56.5t75 26.5q-13 22 -13 46q0 47 38 81.5t90 34.5h212v-40h-209q-37 0 -64 -22.5t-27 -53.5q0 -28 30 -54t119 -75l56 -31q70 -38 101.5 -71.5t31.5 -70.5q0 -72 -102 -84q13 -22 13 -49q0 -49 -38 -81.5t-95 -32.5h-207v40h206q40 0 66.5 21.5 t26.5 53.5q0 26 -29.5 54t-101.5 68l-65 36q-142 80 -142 147zM109 357q0 -43 125 -114l62 -35q80 -45 104 -69q4 2 18 3q34 1 53.5 12t19.5 30q0 22 -29 51t-78 55l-64 36q-84 46 -119 77q-6 -1 -18 -1q-32 0 -53 -13t-21 -32z" />
<glyph unicode="&#xa8;" d="M140 561q0 20 15 35t35 15q21 0 35.5 -15t14.5 -36q0 -20 -15 -34.5t-35 -14.5t-35 15t-15 35zM361 561q0 20 15 35t35 15q21 0 35.5 -15t14.5 -36q0 -20 -15 -34.5t-35 -14.5t-35 15t-15 35z" />
<glyph unicode="&#xa9;" d="M3 282q0 122 87 209t210 87q122 0 209 -87t87 -209q0 -125 -87 -211t-213 -86q-120 0 -206.5 87.5t-86.5 209.5zM44 282q0 -105 74.5 -180.5t177.5 -75.5q109 0 184 74.5t75 181.5q0 105 -75 180t-180 75q-106 0 -181 -74.5t-75 -180.5zM153 260v45q0 29 11 55.5t29.5 46 t44.5 31.5t54 12q48 0 82.5 -25t42.5 -67q0 -20 -18 -20q-15 0 -18 19q-1 16 -15 29.5t-33.5 20.5t-39.5 7q-44 0 -74 -33t-30 -79v-39q0 -46 33.5 -81t79.5 -35q50 0 90 47q7 8 16 8q7 0 12 -5t5 -12q0 -13 -23 -33q-44 -41 -100 -41q-58 0 -103.5 45.5t-45.5 103.5z" />
<glyph unicode="&#xaa;" d="M155 358q0 43 37.5 70t95.5 27q28 0 73 -9v44q0 21 -18 34t-47 13q-28 0 -76 -19q-8 -4 -14 -4q-7 0 -12 5.5t-5 13.5q0 12 14 19q55 22 95 22q44 0 72 -23.5t28 -60.5v-208h-37v26q-54 -29 -107 -29q-44 0 -71.5 22t-27.5 57zM192 356q0 -18 17 -29t45 -11q55 0 107 34 v59q-29 11 -71 11q-43 0 -70.5 -18t-27.5 -46z" />
<glyph unicode="&#xab;" d="M63 209l208 197q11 11 21 11q8 0 14 -6t6 -14t-11 -20l-143 -168l143 -169q11 -12 11 -20t-6 -14t-14 -6t-21 11zM292 209l208 197q11 11 21 11q8 0 14 -6t6 -14t-11 -20l-143 -168l143 -169q11 -12 11 -20t-6 -14t-14 -6t-21 11z" />
<glyph unicode="&#xac;" d="M72 418q0 20 27 20h429v-243q0 -27 -21 -27q-20 0 -20 27v202h-388q-27 0 -27 21z" />
<glyph unicode="&#xad;" d="M72 279q0 20 27 20h402q27 0 27 -20q0 -21 -27 -21h-402q-27 0 -27 21z" />
<glyph unicode="&#xae;" d="M3 282q0 122 87 209t210 87q122 0 209 -87t87 -209q0 -125 -87 -211t-213 -86q-120 0 -206.5 87.5t-86.5 209.5zM44 282q0 -105 74.5 -180.5t177.5 -75.5q109 0 184 74.5t75 181.5q0 105 -75 180t-180 75q-106 0 -181 -74.5t-75 -180.5zM197 120v323h114q46 0 75.5 -26 t29.5 -67q0 -28 -19 -50t-51 -31q25 -16 56 -63t44 -86h-39q-57 119 -111 138h-63v-138h-36zM233 294h56q42 0 66.5 15.5t24.5 42.5q0 24 -19.5 39.5t-50.5 15.5h-77v-113z" />
<glyph unicode="&#xaf;" d="M155 556q0 20 27 20h236q27 0 27 -20t-27 -20h-236q-27 0 -27 20z" />
<glyph unicode="&#xb0;" d="M155 493q0 58 43 100.5t102 42.5q60 0 102.5 -42.5t42.5 -102.5t-42.5 -102.5t-102.5 -42.5q-61 0 -103 42.5t-42 104.5zM196 492q0 -44 30.5 -74.5t73.5 -30.5t73.5 30.5t30.5 73.5t-30.5 73.5t-73.5 30.5t-73.5 -30.5t-30.5 -72.5z" />
<glyph unicode="&#xb1;" d="M72 20q0 20 27 20h402q27 0 27 -20t-27 -20h-402q-27 0 -27 20zM72 321q0 20 27 20h180v161q0 27 21 27q20 0 20 -27v-161h180q28 0 28 -20t-28 -20h-180v-162q0 -27 -20 -27q-21 0 -21 27v162h-180q-27 0 -27 20z" />
<glyph unicode="&#xb2;" d="M175 259v43l132 123q38 38 49 54t11 32q0 26 -21.5 45.5t-50.5 19.5q-26 0 -46.5 -14.5t-27.5 -37.5q-4 -16 -18 -16q-7 0 -12 5t-5 12q0 19 19 43q35 44 90 44q43 0 75.5 -30t32.5 -71q0 -32 -29.5 -66.5t-154.5 -149.5h186v-36h-230z" />
<glyph unicode="&#xb3;" d="M181 304q0 7 5 12t12 5t13 -5q41 -29 84 -29q34 0 59.5 21t25.5 50q0 30 -26 51t-66 22q-21 2 -21 18q0 10 9 16q3 2 28 2q28 0 46 15t18 38q0 24 -19.5 40t-48.5 16q-45 0 -69 -27q-7 -10 -16 -10q-7 0 -12.5 5t-5.5 12q0 19 34.5 37.5t68.5 18.5q44 0 74 -26.5 t30 -65.5q0 -43 -46 -74q58 -36 58 -88q0 -44 -35.5 -75.5t-85.5 -31.5q-37 0 -75.5 18t-38.5 35z" />
<glyph unicode="&#xb4;" d="M280 511q0 8 12 19l114 100q12 9 19 9q8 0 14 -6t6 -15q0 -8 -12 -19l-114 -100q-12 -9 -19 -9q-8 0 -14 6t-6 15z" />
<glyph unicode="&#xb6;" d="M79 406v47q0 67 60.5 109t158.5 42h200q25 0 25 -20q0 -21 -25 -21h-61v-625h-35h-3h-2v625h-72v-625h-2h-3h-36v322q-65 4 -111 24q-43 19 -68.5 52t-25.5 70zM149 414q0 -40 38.5 -70.5t96.5 -36.5v251q-58 -6 -96.5 -36.5t-38.5 -70.5v-37z" />
<glyph unicode="&#xb7;" d="M226 283q0 28 20 46.5t49 18.5h10q29 0 49 -18.5t20 -46.5t-20 -47t-49 -19h-10q-29 0 -49 19t-20 47z" />
<glyph unicode="&#xb8;" d="M210 -133q0 8 6 13.5t14 5.5q5 0 15 -5q29 -16 51 -16q19 0 31.5 8t12.5 21q0 25 -46 25h-20v81h38v-47q65 -2 65 -61q0 -29 -22 -47t-57 -18q-25 0 -56.5 11t-31.5 29z" />
<glyph unicode="&#xb9;" d="M192 558q0 11 16 18t111 36v-353h-36v304l-65 -21q-8 -2 -9 -2q-6 0 -11.5 5.5t-5.5 12.5z" />
<glyph unicode="&#xba;" d="M154 431q0 60 43 103t104 43q62 0 104.5 -43t42.5 -105q0 -59 -43.5 -102t-103.5 -43q-61 0 -104 43t-43 104zM191 431q0 -46 32.5 -78t77.5 -32t77.5 32t32.5 76q0 47 -32 79t-78 32t-78 -32t-32 -77z" />
<glyph unicode="&#xbb;" d="M63 20q0 8 11 20l142 168l-142 169q-11 12 -11 20t6 14t14 6t21 -11l207 -198l-207 -197q-11 -11 -21 -11q-8 0 -14 6t-6 14zM293 20q0 8 11 20l142 168l-142 169q-11 12 -11 20t6 14t14 6t21 -11l207 -198l-207 -197q-11 -11 -21 -11q-8 0 -14 6t-6 14z" />
<glyph unicode="&#xbc;" d="M18 558q0 11 16 18t111 36v-353h-26h-10v304l-65 -21q-8 -2 -9 -2q-6 0 -11.5 5.5t-5.5 12.5zM103 71q0 7 9 17l350 414q11 12 18 12q8 0 14 -6t6 -14q0 -5 -8 -17l-351 -414q-10 -12 -18 -12t-14 6t-6 14zM361 93v34l128 218h57v-216h13q21 0 21 -18t-25 -18h-9v-93h-36 v93h-149zM401 129h109v180h-2z" />
<glyph unicode="&#xbd;" d="M24 558q0 11 16 18t111 36v-353h-26h-10v304l-65 -21q-8 -2 -9 -2q-6 0 -11.5 5.5t-5.5 12.5zM96 71q0 7 9 17l350 414q11 12 18 12q8 0 14 -6t6 -14q0 -5 -8 -17l-351 -414q-10 -12 -18 -12t-14 6t-6 14zM343 0v43l132 123q38 38 49 54t11 32q0 26 -21.5 45.5 t-50.5 19.5q-26 0 -46.5 -14.5t-27.5 -37.5q-4 -16 -18 -16q-7 0 -12 5t-5 12q0 19 19 43q35 44 90 44q43 0 75.5 -30t32.5 -71q0 -32 -29.5 -66.5t-154.5 -149.5h186v-36h-230z" />
<glyph unicode="&#xbe;" d="M6 304q0 7 5 12t12 5t13 -5q41 -29 84 -29q34 0 59.5 21t25.5 50q0 30 -26 51t-66 22q-21 2 -21 18q0 10 9 16q3 2 28 2q28 0 46 15t18 38q0 24 -19.5 40t-48.5 16q-45 0 -69 -27q-8 -10 -16 -10q-7 0 -12.5 5t-5.5 12q0 19 34.5 37.5t68.5 18.5q44 0 74 -26.5t30 -65.5 q0 -43 -46 -74q58 -36 58 -88q0 -44 -35.5 -75.5t-85.5 -31.5q-37 0 -75.5 18t-38.5 35zM102 71q0 7 9 17l350 414q11 12 18 12q8 0 14 -6t6 -14q0 -5 -8 -17l-351 -414q-10 -12 -18 -12t-14 6t-6 14zM361 93v34l128 218h57v-216h13q21 0 21 -18t-25 -18h-9v-93h-36v93h-149 zM401 129h109v180h-2z" />
<glyph unicode="&#xbf;" d="M113 -21q0 56 35.5 94t129.5 82v41q0 27 20 27q21 0 21 -27v-68q-87 -36 -126 -71t-39 -78q0 -50 40 -81.5t102 -31.5q60 0 129 34l41 -26q-6 -3 -16 -7.5t-13 -5.5q-81 -36 -146 -36q-80 0 -129 42.5t-49 111.5zM229 367q0 22 16 36t41 14h27q26 0 41.5 -14t15.5 -36 t-15.5 -36t-41.5 -14h-27q-25 0 -41 14t-16 36z" />
<glyph unicode="&#xc0;" d="M52 0l210 563h68l212 -563h-43l-71 188h-266l-69 -188h-41zM165 769q0 8 6 14t14 6q7 0 19 -9l114 -100l7 -8q5 -5 5 -11q0 -9 -6 -15t-15 -6q-7 0 -18 9l-114 100q-12 11 -12 20zM178 229h235l-112 293h-15z" />
<glyph unicode="&#xc1;" d="M52 0l210 563h68l212 -563h-43l-71 188h-266l-69 -188h-41zM178 229h235l-112 293h-15zM218 661q0 8 12 19l114 100q12 9 19 9q8 0 14 -6t6 -15q0 -8 -12 -19l-114 -100q-12 -9 -19 -9q-8 0 -14 6t-6 15z" />
<glyph unicode="&#xc2;" d="M52 0l210 563h68l212 -563h-43l-71 188h-266l-69 -188h-41zM154 660q0 11 13 20l132 109l132 -108q13 -11 13 -21q0 -8 -6 -14t-14 -6q-7 0 -18 8l-107 88l-107 -88q-11 -8 -18 -8q-8 0 -14 6t-6 14zM178 229h235l-112 293h-15z" />
<glyph unicode="&#xc3;" d="M52 0l210 563h68l212 -563h-43l-71 188h-266l-69 -188h-41zM118 688q0 11 19 30q40 37 75 37q25 0 64 -23q45 -25 59 -25q13 0 23.5 7.5t33.5 30.5q8 8 16 8t14 -6t6 -14q0 -10 -22 -31q-36 -36 -69 -36q-29 0 -81 31q-26 17 -43 17q-15 0 -25.5 -7t-32.5 -30 q-6 -8 -17 -8q-8 0 -14 5.5t-6 13.5zM178 229h235l-112 293h-15z" />
<glyph unicode="&#xc4;" d="M52 0l210 563h68l212 -563h-43l-71 188h-266l-69 -188h-41zM137 711q0 20 15 35t35 15q21 0 35.5 -15t14.5 -36q0 -20 -15 -34.5t-35 -14.5t-35 15t-15 35zM178 229h235l-112 293h-15zM358 711q0 20 15 35t35 15q21 0 35.5 -15t14.5 -36q0 -20 -15 -34.5t-35 -14.5 t-35 15t-15 35z" />
<glyph unicode="&#xc5;" d="M52 0l210 563h68l212 -563h-43l-71 188h-266l-69 -188h-41zM178 229h235l-112 293h-15zM184 721q0 37 27.5 63.5t65.5 26.5q39 0 66 -26.5t27 -65.5q0 -36 -27.5 -62.5t-65.5 -26.5t-65.5 27t-27.5 64zM217 721q0 -24 17.5 -41t42.5 -17t42.5 17t17.5 40q0 24 -17.5 41 t-42.5 17t-42.5 -17t-17.5 -40z" />
<glyph unicode="&#xc6;" d="M62 0l156 563h352v-41h-232v-208h118v-41h-118v-232h252v-41h-293v189h-141l-52 -189h-42zM167 230h130v292h-50z" />
<glyph unicode="&#xc7;" d="M63 242v83q0 30 8.5 62.5t25 62t37.5 52.5q69 74 171 74q28 0 58.5 -7t63 -23t58 -47.5t34.5 -74.5q0 -27 -21 -27q-18 0 -20 24q-3 46 -54.5 80t-118.5 34q-83 0 -142 -63.5t-59 -152.5v-71q0 -90 65 -156.5t153 -66.5q52 0 93 21t81 69q9 10 18 10q4 0 8 -1.5t6.5 -4 t4 -6t1.5 -7.5q0 -16 -38 -51q-76 -71 -174 -71h-5v-31q31 -1 48 -17t17 -44q0 -19 -10 -34t-28 -23t-41 -8q-25 0 -56.5 11t-31.5 29q0 8 6 13.5t14 5.5q5 0 15 -5q31 -16 51 -16q13 0 23 3.5t15.5 10.5t5.5 15q0 25 -46 25h-20v69h-1q-89 17 -152 90.5t-63 163.5z" />
<glyph unicode="&#xc8;" d="M124 0v563h375v-41h-334v-209h186v-41h-186v-231h355v-41h-396zM176 769q0 8 6 14t14 6q7 0 19 -9l114 -100l7 -8q5 -5 5 -11q0 -9 -6 -15t-15 -6q-8 0 -18 9l-114 100q-12 11 -12 20z" />
<glyph unicode="&#xc9;" d="M124 0v563h375v-41h-334v-209h186v-41h-186v-231h355v-41h-396zM236 661q0 8 12 19l114 100q12 9 19 9q8 0 14 -6t6 -15q0 -8 -12 -19l-114 -100q-12 -9 -19 -9q-8 0 -14 6t-6 15z" />
<glyph unicode="&#xca;" d="M124 0v563h375v-41h-334v-209h186v-41h-186v-231h355v-41h-396zM146 660q0 11 13 20l132 109l132 -108q13 -11 13 -21q0 -8 -6 -14t-14 -6q-7 0 -18 8l-107 88l-107 -88q-11 -8 -18 -8q-8 0 -14 6t-6 14z" />
<glyph unicode="&#xcb;" d="M124 0v563h375v-41h-334v-209h186v-41h-186v-231h355v-41h-396zM131 711q0 20 15 35t35 15q21 0 35.5 -15t14.5 -36q0 -20 -15 -34.5t-35 -14.5t-35 15t-15 35zM352 711q0 20 15 35t35 15q21 0 35.5 -15t14.5 -36q0 -20 -15 -34.5t-35 -14.5t-35 15t-15 35z" />
<glyph unicode="&#xcc;" d="M191 769q0 8 6 14t14 6q7 0 19 -9l114 -100l7 -8q5 -5 5 -11q0 -9 -6 -15t-15 -6q-7 0 -18 9l-114 100q-12 11 -12 20zM279 0v563h41v-563h-41z" />
<glyph unicode="&#xcd;" d="M279 0v563h41v-563h-41zM280 661q0 8 12 19l114 100q12 9 19 9q8 0 14 -6t6 -15q0 -8 -12 -19l-114 -100q-12 -9 -19 -9q-8 0 -14 6t-6 15z" />
<glyph unicode="&#xce;" d="M155 660q0 11 13 20l132 109l132 -108q13 -11 13 -21q0 -8 -6 -14t-14 -6q-7 0 -18 8l-107 88l-107 -88q-11 -8 -18 -8q-8 0 -14 6t-6 14zM279 0v563h41v-563h-41z" />
<glyph unicode="&#xcf;" d="M140 711q0 20 15 35t35 15q21 0 35.5 -15t14.5 -36q0 -20 -15 -34.5t-35 -14.5t-35 15t-15 35zM279 0v563h41v-563h-41zM361 711q0 20 15 35t35 15q21 0 35.5 -15t14.5 -36q0 -20 -15 -34.5t-35 -14.5t-35 15t-15 35z" />
<glyph unicode="&#xd0;" d="M0 293q0 20 27 20h77v250h190q95 -1 160.5 -74.5t65.5 -178.5v-56q0 -107 -66 -180.5t-163 -73.5h-187v272h-77q-27 0 -27 21zM145 41h150q72 0 128 62t56 142v73q0 87 -65 154q-50 50 -126 50h-143v-209h162q27 0 27 -20q0 -21 -27 -21h-162v-231z" />
<glyph unicode="&#xd1;" d="M103 0v563h52l305 -504v504h41v-563h-52l-305 504v-504h-41zM143 688q0 11 19 30q40 37 75 37q25 0 64 -23q45 -25 59 -25q13 0 23.5 7.5t33.5 30.5q8 8 16 8t14 -6t6 -14q0 -10 -22 -31q-36 -36 -69 -36q-29 0 -81 31q-26 17 -43 17q-15 0 -25.5 -7t-32.5 -30 q-6 -8 -17 -8q-8 0 -14 5.5t-6 13.5z" />
<glyph unicode="&#xd2;" d="M51 280q0 124 72.5 210t176.5 86q106 0 177.5 -86.5t71.5 -213.5q0 -121 -73 -206.5t-176 -85.5q-104 0 -176.5 86t-72.5 210zM92 280q0 -105 61 -180t147 -75q85 0 146.5 74.5t61.5 177.5q0 108 -60.5 183t-147.5 75q-86 0 -147 -75t-61 -180zM185 769q0 8 6 14t14 6 q7 0 19 -9l114 -100l7 -8q5 -5 5 -11q0 -9 -6 -15t-15 -6q-7 0 -18 9l-114 100q-12 11 -12 20z" />
<glyph unicode="&#xd3;" d="M51 280q0 124 72.5 210t176.5 86q106 0 177.5 -86.5t71.5 -213.5q0 -121 -73 -206.5t-176 -85.5q-104 0 -176.5 86t-72.5 210zM92 280q0 -105 61 -180t147 -75q85 0 146.5 74.5t61.5 177.5q0 108 -60.5 183t-147.5 75q-86 0 -147 -75t-61 -180zM251 661q0 8 12 19 l114 100q12 9 19 9q8 0 14 -6t6 -15q0 -8 -12 -19l-114 -100q-12 -9 -19 -9q-8 0 -14 6t-6 15z" />
<glyph unicode="&#xd4;" d="M51 280q0 124 72.5 210t176.5 86q106 0 177.5 -86.5t71.5 -213.5q0 -121 -73 -206.5t-176 -85.5q-104 0 -176.5 86t-72.5 210zM92 280q0 -105 61 -180t147 -75q85 0 146.5 74.5t61.5 177.5q0 108 -60.5 183t-147.5 75q-86 0 -147 -75t-61 -180zM154 660q0 11 13 20 l132 109l132 -108q13 -11 13 -21q0 -8 -6 -14t-14 -6q-7 0 -18 8l-107 88l-107 -88q-11 -8 -18 -8q-8 0 -14 6t-6 14z" />
<glyph unicode="&#xd5;" d="M51 280q0 124 72.5 210t176.5 86q106 0 177.5 -86.5t71.5 -213.5q0 -121 -73 -206.5t-176 -85.5q-104 0 -176.5 86t-72.5 210zM92 280q0 -105 61 -180t147 -75q85 0 146.5 74.5t61.5 177.5q0 108 -60.5 183t-147.5 75q-86 0 -147 -75t-61 -180zM151 688q0 11 19 30 q40 37 75 37q25 0 64 -23q45 -25 59 -25q13 0 23.5 7.5t33.5 30.5q8 8 16 8t14 -6t6 -14q0 -10 -22 -31q-36 -36 -69 -36q-29 0 -81 31q-26 17 -43 17q-15 0 -25.5 -7t-32.5 -30q-6 -8 -17 -8q-8 0 -14 5.5t-6 13.5z" />
<glyph unicode="&#xd6;" d="M51 280q0 124 72.5 210t176.5 86q106 0 177.5 -86.5t71.5 -213.5q0 -121 -73 -206.5t-176 -85.5q-104 0 -176.5 86t-72.5 210zM92 280q0 -105 61 -180t147 -75q85 0 146.5 74.5t61.5 177.5q0 108 -60.5 183t-147.5 75q-86 0 -147 -75t-61 -180zM139 711q0 20 15 35t35 15 q21 0 35.5 -15t14.5 -36q0 -20 -15 -34.5t-35 -14.5t-35 15t-15 35zM360 711q0 20 15 35t35 15q21 0 35.5 -15t14.5 -36q0 -20 -15 -34.5t-35 -14.5t-35 15t-15 35z" />
<glyph unicode="&#xd7;" d="M118 120q0 9 10 19l143 143l-143 142q-10 11 -10 19q0 9 6 15t15 6q7 0 18 -11l143 -142l142 142q11 11 19 11t14.5 -6t6.5 -15q0 -8 -11 -19l-142 -142l142 -143q11 -10 11 -19q0 -8 -6 -14t-15 -6t-19 10l-142 143l-142 -143q-11 -10 -19 -10q-9 0 -15 6t-6 14z" />
<glyph unicode="&#xd8;" d="M40 -25q0 6 8 16l69 87q-66 88 -66 202q0 124 72.5 210t176.5 86q86 0 158 -66l66 83q9 12 18 12q8 0 13 -5.5t5 -12.5q0 -5 -8 -16l-70 -88q67 -83 67 -203q0 -124 -72.5 -210t-176.5 -86q-90 0 -159 67l-65 -82q-9 -12 -18 -12q-8 0 -13 5.5t-5 12.5zM92 280 q0 -91 52 -168l288 364q-59 59 -132 59q-86 0 -147 -75t-61 -180zM167 84q59 -59 133 -59q86 0 147 75t61 180q0 94 -52 169z" />
<glyph unicode="&#xd9;" d="M101 185v378h41v-378q0 -68 45.5 -114t112.5 -46q66 0 112 46.5t46 113.5v378h41v-378q0 -85 -57.5 -143t-141.5 -58q-85 0 -142 57.5t-57 143.5zM188 769q0 8 6 14t14 6q7 0 19 -9l114 -100l7 -8q5 -5 5 -11q0 -9 -6 -15t-15 -6q-8 0 -18 9l-114 100q-12 11 -12 20z" />
<glyph unicode="&#xda;" d="M101 185v378h41v-378q0 -68 45.5 -114t112.5 -46q66 0 112 46.5t46 113.5v378h41v-378q0 -85 -57.5 -143t-141.5 -58q-85 0 -142 57.5t-57 143.5zM248 661q0 8 12 19l114 100q12 9 19 9q8 0 14 -6t6 -15q0 -8 -12 -19l-114 -100q-12 -9 -19 -9q-8 0 -14 6t-6 15z" />
<glyph unicode="&#xdb;" d="M101 185v378h41v-378q0 -68 45.5 -114t112.5 -46q66 0 112 46.5t46 113.5v378h41v-378q0 -85 -57.5 -143t-141.5 -58q-85 0 -142 57.5t-57 143.5zM154 660q0 11 13 20l132 109l132 -108q13 -11 13 -21q0 -8 -6 -14t-14 -6q-7 0 -18 8l-107 88l-107 -88q-11 -8 -18 -8 q-8 0 -14 6t-6 14z" />
<glyph unicode="&#xdc;" d="M101 185v378h41v-378q0 -68 45.5 -114t112.5 -46q66 0 112 46.5t46 113.5v378h41v-378q0 -85 -57.5 -143t-141.5 -58q-85 0 -142 57.5t-57 143.5zM139 711q0 20 15 35t35 15q21 0 35.5 -15t14.5 -36q0 -20 -15 -34.5t-35 -14.5t-35 15t-15 35zM360 711q0 20 15 35t35 15 q21 0 35.5 -15t14.5 -36q0 -20 -15 -34.5t-35 -14.5t-35 15t-15 35z" />
<glyph unicode="&#xdd;" d="M74 563h49l180 -268l176 268h46l-203 -309v-254h-41v254zM248 661q0 8 12 19l114 100q12 9 19 9q8 0 14 -6t6 -15q0 -8 -12 -19l-114 -100q-12 -9 -19 -9q-8 0 -14 6t-6 15z" />
<glyph unicode="&#xde;" d="M43 21q0 20 27 20h54v481h-54q-27 0 -27 21q0 20 27 20h233q28 0 28 -20q0 -21 -28 -21h-138v-59h145q80 0 134.5 -47.5t54.5 -117.5t-59 -118.5t-144 -48.5h-131v-90h138q28 0 28 -20q0 -21 -28 -21h-233q-27 0 -27 21zM165 172h134q65 0 112 37t47 89q0 51 -42.5 87.5 t-101.5 36.5h-149v-250z" />
<glyph unicode="&#xdf;" d="M124 0v476q0 53 41.5 90.5t100.5 37.5q61 0 103.5 -42.5t42.5 -103.5q0 -60 -58 -99q145 -59 145 -198q0 -76 -38.5 -126.5t-95.5 -50.5q-45 0 -75.5 33.5t-30.5 83.5q0 23 20 23q19 0 21 -24q2 -35 19.5 -55t45.5 -20q39 0 66 39.5t27 97.5q0 78 -61 128q-54 44 -118 44 h-5q-27 0 -27 21q0 20 23 20h5q38 0 67 25.5t29 58.5q0 43 -31 73.5t-74 30.5q-42 0 -71.5 -25t-29.5 -62v-476h-41z" />
<glyph unicode="&#xe0;" d="M72 112q0 65 58.5 105.5t152.5 40.5q59 0 136 -21v71q0 37 -34 59.5t-89 22.5q-44 0 -142 -30q-8 -2 -10 -2q-8 0 -13.5 6t-5.5 14q0 15 17 21q93 32 157 32q70 0 115.5 -35t45.5 -88v-308h-41v67q-89 -83 -191 -83q-70 0 -113 35.5t-43 92.5zM113 111q0 -39 31 -62.5 t83 -23.5q53 0 97.5 20t94.5 67v90q-60 15 -128 15q-79 0 -128.5 -29.5t-49.5 -76.5zM174 619q0 8 6 14t14 6q7 0 19 -9l114 -100l7 -8q5 -5 5 -11q0 -9 -6 -15t-15 -6q-8 0 -18 9l-114 100q-12 11 -12 20z" />
<glyph unicode="&#xe1;" d="M72 112q0 65 58.5 105.5t152.5 40.5q59 0 136 -21v71q0 37 -34 59.5t-89 22.5q-44 0 -142 -30q-8 -2 -10 -2q-8 0 -13.5 6t-5.5 14q0 15 17 21q93 32 157 32q70 0 115.5 -35t45.5 -88v-308h-41v67q-89 -83 -191 -83q-70 0 -113 35.5t-43 92.5zM113 111q0 -39 31 -62.5 t83 -23.5q53 0 97.5 20t94.5 67v90q-60 15 -128 15q-79 0 -128.5 -29.5t-49.5 -76.5zM234 511q0 8 12 19l114 100q12 9 19 9q8 0 14 -6t6 -15q0 -8 -12 -19l-114 -100q-12 -9 -19 -9q-8 0 -14 6t-6 15z" />
<glyph unicode="&#xe2;" d="M72 112q0 65 58.5 105.5t152.5 40.5q59 0 136 -21v71q0 37 -34 59.5t-89 22.5q-44 0 -142 -30q-8 -2 -10 -2q-8 0 -13.5 6t-5.5 14q0 15 17 21q93 32 157 32q70 0 115.5 -35t45.5 -88v-308h-41v67q-89 -83 -191 -83q-70 0 -113 35.5t-43 92.5zM113 111q0 -39 31 -62.5 t83 -23.5q53 0 97.5 20t94.5 67v90q-60 15 -128 15q-79 0 -128.5 -29.5t-49.5 -76.5zM145 510q0 11 13 20l132 109l132 -108q13 -11 13 -21q0 -8 -6 -14t-14 -6q-7 0 -18 8l-107 88l-107 -88q-11 -8 -18 -8q-8 0 -14 6t-6 14z" />
<glyph unicode="&#xe3;" d="M72 112q0 65 58.5 105.5t152.5 40.5q59 0 136 -21v71q0 37 -34 59.5t-89 22.5q-44 0 -142 -30q-8 -2 -10 -2q-8 0 -13.5 6t-5.5 14q0 15 17 21q93 32 157 32q70 0 115.5 -35t45.5 -88v-308h-41v67q-89 -83 -191 -83q-70 0 -113 35.5t-43 92.5zM113 111q0 -39 31 -62.5 t83 -23.5q53 0 97.5 20t94.5 67v90q-60 15 -128 15q-79 0 -128.5 -29.5t-49.5 -76.5zM135 538q0 11 19 30q40 37 75 37q25 0 64 -23q45 -25 59 -25q13 0 23.5 7.5t33.5 30.5q8 8 16 8t14 -6t6 -14q0 -10 -22 -31q-36 -36 -69 -36q-29 0 -81 31q-26 17 -43 17q-15 0 -25.5 -7 t-32.5 -30q-6 -8 -17 -8q-8 0 -14 5.5t-6 13.5z" />
<glyph unicode="&#xe4;" d="M72 112q0 65 58.5 105.5t152.5 40.5q59 0 136 -21v71q0 37 -34 59.5t-89 22.5q-44 0 -142 -30q-8 -2 -10 -2q-8 0 -13.5 6t-5.5 14q0 15 17 21q93 32 157 32q70 0 115.5 -35t45.5 -88v-308h-41v67q-89 -83 -191 -83q-70 0 -113 35.5t-43 92.5zM113 111q0 -39 31 -62.5 t83 -23.5q53 0 97.5 20t94.5 67v90q-60 15 -128 15q-79 0 -128.5 -29.5t-49.5 -76.5zM129 561q0 20 15 35t35 15q21 0 35.5 -15t14.5 -36q0 -20 -15 -34.5t-35 -14.5t-35 15t-15 35zM350 561q0 20 15 35t35 15q21 0 35.5 -15t14.5 -36q0 -20 -15 -34.5t-35 -14.5t-35 15 t-15 35z" />
<glyph unicode="&#xe5;" d="M72 112q0 65 58.5 105.5t152.5 40.5q59 0 136 -21v71q0 37 -34 59.5t-89 22.5q-44 0 -142 -30q-8 -2 -10 -2q-8 0 -13.5 6t-5.5 14q0 15 17 21q93 32 157 32q70 0 115.5 -35t45.5 -88v-308h-41v67q-89 -83 -191 -83q-70 0 -113 35.5t-43 92.5zM113 111q0 -39 31 -62.5 t83 -23.5q53 0 97.5 20t94.5 67v90q-60 15 -128 15q-79 0 -128.5 -29.5t-49.5 -76.5zM197 571q0 37 27.5 63.5t65.5 26.5q39 0 66 -26.5t27 -65.5q0 -36 -27.5 -62.5t-65.5 -26.5t-65.5 27t-27.5 64zM230 571q0 -24 17.5 -41t42.5 -17t42.5 17t17.5 40q0 24 -17.5 41 t-42.5 17t-42.5 -17t-17.5 -40z" />
<glyph unicode="&#xe6;" d="M12 132q0 58 55.5 91.5t127.5 33.5q41 0 85 -12v60q0 35 -25.5 60t-62.5 25q-45 0 -84 -25q-12 -7 -18 -7q-7 0 -13 6.5t-6 13.5q0 16 29 28q56 25 99 25q37 0 68 -23t45 -61q18 39 50 61.5t68 22.5q45 0 79 -28t50 -78q17 -51 18 -126h-258q5 -76 41 -125t86 -49 q22 0 42.5 12t56.5 45q7 5 13 5q8 0 14 -6t6 -14q0 -12 -31 -38q-60 -45 -103 -45q-74 0 -124 77v-34q0 -27 -20 -27t-20 27v25q-56 -68 -120 -68t-106 42t-42 106zM57 121q0 -42 29.5 -69t75.5 -27q51 0 118 85v93q-44 13 -79 13q-32 0 -69 -12t-54 -28q-21 -21 -21 -55z M320 240h215q-8 65 -23 95q-27 55 -83 55q-89 0 -109 -150z" />
<glyph unicode="&#xe7;" d="M84 204q0 99 65 163t165 64q26 0 54 -6t59 -19.5t54 -41.5t30 -66q0 -27 -20 -27q-18 0 -21 24q-3 40 -49.5 67.5t-109.5 27.5q-41 0 -75.5 -13.5t-59 -37.5t-38 -58.5t-13.5 -75.5q0 -79 52 -129.5t134 -50.5q109 0 187 72q10 10 18 10q7 0 13 -5.5t6 -13.5 q0 -20 -43 -49q-77 -53 -177 -55v-31q31 -1 48 -17t17 -44q0 -29 -22 -47t-57 -18q-25 0 -56.5 11t-31.5 29q0 8 6 13.5t14 5.5q5 0 15 -5q29 -16 51 -16q10 0 18 2t14 6t9 9.5t3 11.5q0 25 -46 25h-20v67q-86 10 -139.5 70t-53.5 148z" />
<glyph unicode="&#xe8;" d="M63 217q0 91 66 152.5t162 61.5q72 0 128.5 -36t83.5 -98q17 -40 17 -98h-416q11 -79 66 -126.5t136 -47.5q47 0 96 15t79 39q10 7 16 7q8 0 13.5 -6t5.5 -14q0 -26 -71.5 -54t-139.5 -28q-101 0 -171.5 68t-70.5 165zM104 240h374q-12 68 -63 109t-124 41t-123 -40.5 t-64 -109.5zM189 619q0 8 6 14t14 6q7 0 19 -9l114 -100l7 -8q5 -5 5 -11q0 -9 -6 -15t-15 -6q-7 0 -18 9l-114 100q-12 11 -12 20z" />
<glyph unicode="&#xe9;" d="M63 217q0 91 66 152.5t162 61.5q72 0 128.5 -36t83.5 -98q17 -40 17 -98h-416q11 -79 66 -126.5t136 -47.5q47 0 96 15t79 39q10 7 16 7q8 0 13.5 -6t5.5 -14q0 -26 -71.5 -54t-139.5 -28q-101 0 -171.5 68t-70.5 165zM104 240h374q-12 68 -63 109t-124 41t-123 -40.5 t-64 -109.5zM249 511q0 8 12 19l114 100q12 9 19 9q8 0 14 -6t6 -15q0 -8 -12 -19l-114 -100q-12 -9 -19 -9q-8 0 -14 6t-6 15z" />
<glyph unicode="&#xea;" d="M63 217q0 91 66 152.5t162 61.5q72 0 128.5 -36t83.5 -98q17 -40 17 -98h-416q11 -79 66 -126.5t136 -47.5q47 0 96 15t79 39q10 7 16 7q8 0 13.5 -6t5.5 -14q0 -26 -71.5 -54t-139.5 -28q-101 0 -171.5 68t-70.5 165zM104 240h374q-12 68 -63 109t-124 41t-123 -40.5 t-64 -109.5zM160 510q0 11 13 20l132 109l132 -108q13 -11 13 -21q0 -8 -6 -14t-14 -6q-7 0 -18 8l-107 88l-107 -88q-11 -8 -18 -8q-8 0 -14 6t-6 14z" />
<glyph unicode="&#xeb;" d="M63 217q0 91 66 152.5t162 61.5q72 0 128.5 -36t83.5 -98q17 -40 17 -98h-416q11 -79 66 -126.5t136 -47.5q47 0 96 15t79 39q10 7 16 7q8 0 13.5 -6t5.5 -14q0 -26 -71.5 -54t-139.5 -28q-101 0 -171.5 68t-70.5 165zM104 240h374q-12 68 -63 109t-124 41t-123 -40.5 t-64 -109.5zM144 561q0 20 15 35t35 15q21 0 35.5 -15t14.5 -36q0 -20 -15 -34.5t-35 -14.5t-35 15t-15 35zM365 561q0 20 15 35t35 15q21 0 35.5 -15t14.5 -36q0 -20 -15 -34.5t-35 -14.5t-35 15t-15 35z" />
<glyph unicode="&#xec;" d="M134 397q0 20 27 20h159v-417h-41v376h-118q-27 0 -27 21zM178 619q0 8 6 14t14 6q7 0 19 -9l114 -100l7 -8q5 -5 5 -11q0 -9 -6 -15t-15 -6q-8 0 -18 9l-114 100q-12 11 -12 20z" />
<glyph unicode="&#xed;" d="M134 397q0 20 27 20h159v-417h-41v376h-118q-27 0 -27 21zM238 511q0 8 12 19l114 100q12 9 19 9q8 0 14 -6t6 -15q0 -8 -12 -19l-114 -100q-12 -9 -19 -9q-8 0 -14 6t-6 15z" />
<glyph unicode="&#xee;" d="M134 397q0 20 27 20h159v-417h-41v376h-118q-27 0 -27 21zM138 510q0 11 13 20l132 109l132 -108q13 -11 13 -21q0 -8 -6 -14t-14 -6q-7 0 -18 8l-107 88l-107 -88q-11 -8 -18 -8q-8 0 -14 6t-6 14z" />
<glyph unicode="&#xef;" d="M127 561q0 20 15 35t35 15q21 0 35.5 -15t14.5 -36q0 -20 -15 -34.5t-35 -14.5t-35 15t-15 35zM134 397q0 20 27 20h159v-417h-41v376h-118q-27 0 -27 21zM348 561q0 20 15 35t35 15q21 0 35.5 -15t14.5 -36q0 -20 -15 -34.5t-35 -14.5t-35 15t-15 35z" />
<glyph unicode="&#xf0;" d="M72 207q0 92 66 157.5t160 65.5q41 0 73 -12t73 -41q-53 99 -121 148l-91 -42q-2 -1 -7 -1q-8 0 -14 7t-6 16q0 13 9 16l63 28q-52 22 -98 31q-20 4 -20 18q0 10 6 16t15 6q47 0 148 -48l95 42l7 1q8 0 13.5 -6t5.5 -15q0 -13 -9 -17l-75 -34q75 -64 119 -151.5 t44 -170.5q0 -107 -66 -173q-67 -65 -162 -65t-161.5 65t-66.5 159zM114 208q0 -76 54.5 -129.5t132.5 -53.5q77 0 132 53t55 127q0 79 -54 132t-133 53q-78 0 -132.5 -53t-54.5 -129z" />
<glyph unicode="&#xf1;" d="M126 0v417h41v-69q43 48 76 65.5t80 17.5q67 0 112 -39t45 -97v-295h-41v288q0 44 -38 76q-31 26 -82 26q-55 0 -95 -33q-18 -13 -57 -63v-294h-41zM135 538q0 11 19 30q40 37 75 37q25 0 64 -23q45 -25 59 -25q13 0 23.5 7.5t33.5 30.5q8 8 16 8t14 -6t6 -14 q0 -10 -22 -31q-36 -36 -69 -36q-29 0 -81 31q-26 17 -43 17q-15 0 -25.5 -7t-32.5 -30q-6 -8 -17 -8q-8 0 -14 5.5t-6 13.5z" />
<glyph unicode="&#xf2;" d="M72 208q0 92 66.5 157.5t161.5 65.5q96 0 162 -65.5t66 -160.5q0 -92 -67 -156.5t-161 -64.5q-95 0 -161.5 65t-66.5 159zM113 208q0 -76 54.5 -129.5t132.5 -53.5q77 0 132 53t55 127q0 79 -54 132t-133 53q-78 0 -132.5 -53t-54.5 -129zM191 619q0 8 6 14t14 6 q7 0 19 -9l114 -100l7 -8q5 -5 5 -11q0 -9 -6 -15t-15 -6q-7 0 -18 9l-114 100q-12 11 -12 20z" />
<glyph unicode="&#xf3;" d="M72 208q0 92 66.5 157.5t161.5 65.5q96 0 162 -65.5t66 -160.5q0 -92 -67 -156.5t-161 -64.5q-95 0 -161.5 65t-66.5 159zM113 208q0 -76 54.5 -129.5t132.5 -53.5q77 0 132 53t55 127q0 79 -54 132t-133 53q-78 0 -132.5 -53t-54.5 -129zM245 511q0 8 12 19l114 100 q12 9 19 9q8 0 14 -6t6 -15q0 -8 -12 -19l-114 -100q-12 -9 -19 -9q-8 0 -14 6t-6 15z" />
<glyph unicode="&#xf4;" d="M72 208q0 92 66.5 157.5t161.5 65.5q96 0 162 -65.5t66 -160.5q0 -92 -67 -156.5t-161 -64.5q-95 0 -161.5 65t-66.5 159zM113 208q0 -76 54.5 -129.5t132.5 -53.5q77 0 132 53t55 127q0 79 -54 132t-133 53q-78 0 -132.5 -53t-54.5 -129zM155 510q0 11 13 20l132 109 l132 -108q13 -11 13 -21q0 -8 -6 -14t-14 -6q-7 0 -18 8l-107 88l-107 -88q-11 -8 -18 -8q-8 0 -14 6t-6 14z" />
<glyph unicode="&#xf5;" d="M72 208q0 92 66.5 157.5t161.5 65.5q96 0 162 -65.5t66 -160.5q0 -92 -67 -156.5t-161 -64.5q-95 0 -161.5 65t-66.5 159zM113 208q0 -76 54.5 -129.5t132.5 -53.5q77 0 132 53t55 127q0 79 -54 132t-133 53q-78 0 -132.5 -53t-54.5 -129zM151 538q0 11 19 30 q40 37 75 37q25 0 64 -23q45 -25 59 -25q13 0 23.5 7.5t33.5 30.5q8 8 16 8t14 -6t6 -14q0 -10 -22 -31q-36 -36 -69 -36q-29 0 -81 31q-26 17 -43 17q-15 0 -25.5 -7t-32.5 -30q-6 -8 -17 -8q-8 0 -14 5.5t-6 13.5z" />
<glyph unicode="&#xf6;" d="M72 208q0 92 66.5 157.5t161.5 65.5q96 0 162 -65.5t66 -160.5q0 -92 -67 -156.5t-161 -64.5q-95 0 -161.5 65t-66.5 159zM113 208q0 -76 54.5 -129.5t132.5 -53.5q77 0 132 53t55 127q0 79 -54 132t-133 53q-78 0 -132.5 -53t-54.5 -129zM139 561q0 20 15 35t35 15 q21 0 35.5 -15t14.5 -36q0 -20 -15 -34.5t-35 -14.5t-35 15t-15 35zM360 561q0 20 15 35t35 15q21 0 35.5 -15t14.5 -36q0 -20 -15 -34.5t-35 -14.5t-35 15t-15 35z" />
<glyph unicode="&#xf7;" d="M72 282q0 20 27 20h402q27 0 27 -20t-27 -20h-402q-27 0 -27 20zM251 75q0 20 14.5 34.5t34.5 14.5q21 0 35.5 -14.5t14.5 -35.5q0 -20 -15 -34.5t-35 -14.5t-34.5 14.5t-14.5 35.5zM251 491q0 20 14.5 34.5t34.5 14.5q21 0 35.5 -14.5t14.5 -35.5q0 -20 -15 -34.5 t-35 -14.5t-34.5 14.5t-14.5 35.5z" />
<glyph unicode="&#xf8;" d="M53 -25q0 7 10 17l66 67q-57 66 -57 149q0 93 66.5 158t161.5 65q82 0 144 -49l64 66q11 10 18 10t12 -5.5t5 -12.5t-10 -17l-64 -65q59 -65 59 -151q0 -93 -66.5 -158t-161.5 -65q-80 0 -146 51l-66 -68q-10 -10 -17 -10t-12.5 5.5t-5.5 12.5zM113 208q0 -68 45 -119 l257 263q-50 38 -115 38q-78 0 -132.5 -53t-54.5 -129zM183 65q51 -40 117 -40q78 0 132.5 53t54.5 129q0 68 -46 122z" />
<glyph unicode="&#xf9;" d="M124 115v302h41v-302q0 -38 26.5 -64t64.5 -26q100 0 183 90v302h41v-417h-41v66q-84 -82 -182 -82q-60 0 -96.5 36t-36.5 95zM183 619q0 8 6 14t14 6q7 0 19 -9l114 -100l7 -8q5 -5 5 -11q0 -9 -6 -15t-15 -6q-7 0 -18 9l-114 100q-12 11 -12 20z" />
<glyph unicode="&#xfa;" d="M124 115v302h41v-302q0 -38 26.5 -64t64.5 -26q100 0 183 90v302h41v-417h-41v66q-84 -82 -182 -82q-60 0 -96.5 36t-36.5 95zM230 511q0 8 12 19l114 100q12 9 19 9q8 0 14 -6t6 -15q0 -8 -12 -19l-114 -100q-12 -9 -19 -9q-8 0 -14 6t-6 15z" />
<glyph unicode="&#xfb;" d="M124 115v302h41v-302q0 -38 26.5 -64t64.5 -26q100 0 183 90v302h41v-417h-41v66q-84 -82 -182 -82q-60 0 -96.5 36t-36.5 95zM147 510q0 11 13 20l132 109l132 -108q13 -11 13 -21q0 -8 -6 -14t-14 -6q-7 0 -18 8l-107 88l-107 -88q-11 -8 -18 -8q-8 0 -14 6t-6 14z" />
<glyph unicode="&#xfc;" d="M124 115v302h41v-302q0 -38 26.5 -64t64.5 -26q100 0 183 90v302h41v-417h-41v66q-84 -82 -182 -82q-60 0 -96.5 36t-36.5 95zM131 561q0 20 15 35t35 15q21 0 35.5 -15t14.5 -36q0 -20 -15 -34.5t-35 -14.5t-35 15t-15 35zM352 561q0 20 15 35t35 15q21 0 35.5 -15 t14.5 -36q0 -20 -15 -34.5t-35 -14.5t-35 15t-15 35z" />
<glyph unicode="&#xfd;" d="M74 417h47l184 -372l181 372h42l-296 -603h-41l91 186zM280 511q0 8 12 19l114 100q12 9 19 9q8 0 14 -6t6 -15q0 -8 -12 -19l-114 -100q-12 -9 -19 -9q-8 0 -14 6t-6 15z" />
<glyph unicode="&#xfe;" d="M22 -165q0 20 27 20h54v694h-54q-27 0 -27 21q0 20 27 20h95v-255q40 52 81 74t98 22q93 0 155.5 -60.5t62.5 -149.5t-63 -150t-155 -61q-112 0 -179 96v-251h98q27 0 27 -20q0 -21 -27 -21h-193q-27 0 -27 21zM144 221q0 -71 52 -120.5t126 -49.5t126 49t52 119 q0 73 -51 122t-127 49q-74 0 -126 -49.5t-52 -119.5z" />
<glyph unicode="&#xff;" d="M74 417h47l184 -372l181 372h42l-296 -603h-41l91 186zM139 561q0 20 15 35t35 15q21 0 35.5 -15t14.5 -36q0 -20 -15 -34.5t-35 -14.5t-35 15t-15 35zM360 561q0 20 15 35t35 15q21 0 35.5 -15t14.5 -36q0 -20 -15 -34.5t-35 -14.5t-35 15t-15 35z" />
<glyph unicode="&#x152;" d="M10 282q0 125 68 203t177 78h315v-41h-232v-209h119v-41h-119v-231h252v-41h-327q-114 0 -183.5 77.5t-69.5 204.5zM51 281q0 -103 53 -170q55 -70 161 -70h32v481h-32q-106 0 -161 -70q-53 -67 -53 -171z" />
<glyph unicode="&#x153;" d="M12 212q0 89 45.5 154t107.5 65q41 0 77 -31t57 -83q21 53 47 78q38 36 85 36q44 0 78.5 -28t50.5 -78q17 -52 17 -126h-258q6 -74 42.5 -124t84.5 -50q22 0 42.5 12t56.5 45q7 5 13 5q8 0 14 -6.5t6 -13.5q0 -12 -31 -38q-60 -45 -103 -45q-45 0 -83.5 32t-61.5 87 q-22 -57 -56.5 -88t-76.5 -31q-62 0 -108 68t-46 160zM53 208q0 -73 34 -128t80 -55q44 0 78.5 55t34.5 126q0 74 -34 129t-80 55q-45 0 -79 -54.5t-34 -127.5zM320 240h216q-8 65 -23 95q-28 55 -84 55q-89 0 -109 -150z" />
<glyph unicode="&#x178;" d="M74 563h49l180 -268l176 268h46l-203 -309v-254h-41v254zM139 711q0 20 15 35t35 15q21 0 35.5 -15t14.5 -36q0 -20 -15 -34.5t-35 -14.5t-35 15t-15 35zM360 711q0 20 15 35t35 15q21 0 35.5 -15t14.5 -36q0 -20 -15 -34.5t-35 -14.5t-35 15t-15 35z" />
<glyph unicode="&#x2c6;" d="M155 510q0 11 13 20l132 109l132 -108q13 -11 13 -21q0 -8 -6 -14t-14 -6q-7 0 -18 8l-107 88l-107 -88q-11 -8 -18 -8q-8 0 -14 6t-6 14z" />
<glyph unicode="&#x2dc;" d="M145 538q0 11 19 30q40 37 75 37q25 0 64 -23q45 -25 59 -25q13 0 23.5 7.5t33.5 30.5q8 8 16 8t14 -6t6 -14q0 -10 -22 -31q-36 -36 -69 -36q-29 0 -81 31q-26 17 -43 17q-15 0 -25.5 -7t-32.5 -30q-6 -8 -17 -8q-8 0 -14 5.5t-6 13.5z" />
<glyph unicode="&#x2000;" horiz-adv-x="405" />
<glyph unicode="&#x2001;" horiz-adv-x="811" />
<glyph unicode="&#x2002;" horiz-adv-x="405" />
<glyph unicode="&#x2003;" horiz-adv-x="811" />
<glyph unicode="&#x2004;" horiz-adv-x="270" />
<glyph unicode="&#x2005;" horiz-adv-x="202" />
<glyph unicode="&#x2006;" horiz-adv-x="135" />
<glyph unicode="&#x2007;" horiz-adv-x="135" />
<glyph unicode="&#x2008;" horiz-adv-x="101" />
<glyph unicode="&#x2009;" horiz-adv-x="162" />
<glyph unicode="&#x200a;" horiz-adv-x="45" />
<glyph unicode="&#x2010;" d="M72 279q0 20 27 20h402q27 0 27 -20q0 -21 -27 -21h-402q-27 0 -27 21z" />
<glyph unicode="&#x2011;" d="M72 279q0 20 27 20h402q27 0 27 -20q0 -21 -27 -21h-402q-27 0 -27 21z" />
<glyph unicode="&#x2012;" d="M72 279q0 20 27 20h402q27 0 27 -20q0 -21 -27 -21h-402q-27 0 -27 21z" />
<glyph unicode="&#x2013;" d="M72 282q0 20 27 20h402q27 0 27 -20q0 -21 -27 -21h-402q-27 0 -27 21z" />
<glyph unicode="&#x2014;" d="M1 282q0 20 27 20h544q27 0 27 -20q0 -21 -27 -21h-544q-27 0 -27 21z" />
<glyph unicode="&#x2018;" d="M260 604h133l70 -225q2 -6 2 -10q0 -11 -8.5 -18.5t-20.5 -7.5q-18 0 -31 22z" />
<glyph unicode="&#x2019;" d="M135 343q0 3 2 11l70 250h133l-145 -265q-13 -25 -31 -25q-12 0 -20.5 8.5t-8.5 20.5z" />
<glyph unicode="&#x201a;" d="M135 -116q0 3 2 11l70 250h133l-145 -265q-13 -25 -31 -25q-12 0 -20.5 8.5t-8.5 20.5z" />
<glyph unicode="&#x201c;" d="M93 604h125l70 -225q2 -6 2 -10q0 -11 -8.5 -18.5t-20.5 -7.5q-19 0 -31 22zM310 604h125l70 -225q2 -6 2 -10q0 -11 -8.5 -18.5t-20.5 -7.5q-19 0 -31 22z" />
<glyph unicode="&#x201d;" d="M93 369q0 4 2 10l70 225h125l-137 -239q-12 -22 -31 -22q-12 0 -20.5 7.5t-8.5 18.5zM310 369q0 4 2 10l70 225h125l-137 -239q-12 -22 -31 -22q-12 0 -20.5 7.5t-8.5 18.5z" />
<glyph unicode="&#x201e;" d="M93 -90q0 4 2 10l70 225h125l-137 -239q-12 -22 -31 -22q-12 0 -20.5 7.5t-8.5 18.5zM310 -90q0 4 2 10l70 225h125l-137 -239q-12 -22 -31 -22q-12 0 -20.5 7.5t-8.5 18.5z" />
<glyph unicode="&#x2022;" d="M202 240q0 41 29 69t71 28q39 0 67.5 -29t28.5 -69q0 -41 -29 -69.5t-69 -28.5q-41 0 -69.5 29t-28.5 70z" />
<glyph unicode="&#x2026;" d="M51 34q0 21 14.5 35.5t34.5 14.5q21 0 35.5 -14.5t14.5 -35.5q0 -20 -14.5 -34.5t-34.5 -14.5q-21 0 -35.5 14.5t-14.5 34.5zM250 34q0 20 14.5 35t34.5 15q21 0 35.5 -14.5t14.5 -35.5q0 -20 -15 -34.5t-35 -14.5t-34.5 14.5t-14.5 34.5zM450 35q0 20 15 34.5t35 14.5 t34.5 -14.5t14.5 -35.5q0 -20 -14.5 -34.5t-34.5 -14.5q-21 0 -35.5 14.5t-14.5 35.5z" />
<glyph unicode="&#x202f;" horiz-adv-x="162" />
<glyph unicode="&#x2039;" d="M63 209l208 197q11 11 21 11q8 0 14 -6t6 -14t-11 -20l-143 -168l143 -169q11 -12 11 -20t-6 -14t-14 -6t-21 11z" />
<glyph unicode="&#x203a;" d="M293 20q0 8 11 20l142 168l-142 169q-11 12 -11 20t6 14t14 6t21 -11l207 -198l-207 -197q-11 -11 -21 -11q-8 0 -14 6t-6 14z" />
<glyph unicode="&#x205f;" horiz-adv-x="202" />
<glyph unicode="&#x20ac;" d="M11 236q0 18 22 18h30v60h-30q-22 0 -22 19q0 18 22 18h32q11 97 79.5 161t160.5 64q28 0 59 -7.5t64 -23t58 -47.5t33 -74q0 -27 -21 -27q-18 0 -20 24q-3 46 -54.5 80t-118.5 34q-75 0 -130 -51t-69 -133h288q21 0 21 -18q0 -19 -21 -19h-290v-60h261q21 0 21 -18 q0 -19 -21 -19h-259q14 -83 75.5 -137.5t140.5 -54.5q52 0 93 21t81 69q9 10 18 10q20 0 20 -19q0 -16 -38 -51q-77 -71 -174 -71q-95 0 -170.5 68.5t-86.5 164.5h-32q-22 0 -22 19z" />
<glyph unicode="&#x2122;" d="M4 530v33h242v-33h-105v-287h-33v287h-104zM301 243v320h49l83 -184l81 184h50v-320h-33v277l-82 -184h-32l-83 184v-277h-33z" />
<glyph unicode="&#xe000;" horiz-adv-x="415" d="M0 0v415h415v-415h-415z" />
</font>
</defs>
</svg>
