<?xml version="1.0" standalone="no"?>
<!DOCTYPE svg PUBLIC "-//W3C//DTD SVG 1.1//EN" "http://www.w3.org/Graphics/SVG/1.1/DTD/svg11.dtd" >
<svg xmlns="http://www.w3.org/2000/svg" xmlns:xlink="http://www.w3.org/1999/xlink" version="1.1">
<metadata>
Created by FontForge 20150824 at Fri Jul  1 15:43:47 2016
 By Everything Fonts
Jorge Cisterna
</metadata>
<defs>
<font id="queulat" horiz-adv-x="0" >
  <font-face 
    font-family="Queulat-Light"
    font-weight="400"
    font-stretch="normal"
    units-per-em="1000"
    panose-1="0 0 4 0 0 0 0 0 0 0"
    ascent="789"
    descent="-211"
    x-height="520"
    cap-height="730"
    bbox="-809 -221 1386 998"
    underline-thickness="50"
    underline-position="-100"
    unicode-range="U+0020-FB02"
  />
<missing-glyph horiz-adv-x="600" 
 />
    <glyph glyph-name="fi" unicode="fi" horiz-adv-x="705" 
d="M285 780q53 0 84.5 -26.5t27.5 -64.5q-5 -34 -36 -34q-14 0 -23 8.5t-9 22.5q0 18 15 25q-2 11 -17.5 18.5t-40.5 7.5q-83 0 -83 -100v-117h148v-46h-148v-430h131v-44h-296v44h112v430h-119v46h119v109q0 151 135 151zM541 655q-20 0 -33.5 13.5t-13.5 33.5
q0 18 14 31.5t33 13.5t32.5 -13.5t13.5 -31.5q0 -20 -13.5 -33.5t-32.5 -13.5zM576 44h103v-44h-266v44h111v432h-109v44h161v-476z" />
    <glyph glyph-name="fl" unicode="fl" horiz-adv-x="690" 
d="M285 780q53 0 84.5 -26.5t27.5 -64.5q-5 -34 -36 -34q-14 0 -23 8.5t-9 22.5q0 18 15 25q-2 11 -17.5 18.5t-40.5 7.5q-83 0 -83 -100v-117h148v-46h-148v-430h131v-44h-296v44h112v430h-119v46h119v109q0 151 135 151zM561 44h103v-44h-266v44h110v692h-108v44h161v-736
z" />
    <glyph glyph-name=".notdef" horiz-adv-x="600" 
 />
    <glyph glyph-name=".null" 
 />
    <glyph glyph-name="nonmarkingreturn" horiz-adv-x="333" 
 />
    <glyph glyph-name="space" unicode=" " horiz-adv-x="280" 
 />
    <glyph glyph-name="exclam" unicode="!" horiz-adv-x="276" 
d="M165 780l-10 -622h-34l-10 622h54zM138 -10q-19 0 -32.5 14t-13.5 33t13.5 32t32.5 13t32.5 -13t13.5 -32t-13.5 -33t-32.5 -14z" />
    <glyph glyph-name="quotedbl" unicode="&#x22;" horiz-adv-x="340" 
d="M124 780v-228h-47v228h47zM265 780v-228h-47v228h47z" />
    <glyph glyph-name="numbersign" unicode="#" horiz-adv-x="798" 
d="M756 446h-174l-40 -219h160v-41h-168l-34 -186h-45l34 186h-240l-34 -186h-45l34 186h-162v41h169l40 219h-155v41h163l38 211h45l-38 -211h240l39 211h45l-39 -211h167v-41zM497 227l40 219h-241l-40 -219h241z" />
    <glyph glyph-name="dollar" unicode="$" horiz-adv-x="645" 
d="M336 330q38 -4 53 -6t48.5 -8.5t48.5 -12.5t38.5 -18.5t34 -28t19 -38t8.5 -51.5q0 -81 -70.5 -128.5t-197.5 -47.5h-15l-7 -78l-42 3l8 78q-97 9 -153 51t-55 115q2 40 39 40q17 0 27 -10t10 -26q0 -10 -6.5 -19t-16.5 -11q4 -34 47.5 -60.5t111.5 -34.5l25 253
q-48 6 -80.5 14.5t-65.5 26.5t-50 51t-17 80q0 78 63 126.5t170 49.5h14l7 71l40 -3l-7 -71q92 -12 145.5 -59.5t48.5 -123.5q-4 -39 -40 -39q-16 0 -26.5 10.5t-10.5 25.5q0 11 6.5 20t17.5 10q-2 42 -40.5 72t-104.5 39zM127 464q0 -63 43.5 -89.5t124.5 -38.5l26 259h-10
q-86 -1 -135 -37t-49 -94zM318 36q104 0 161.5 35t57.5 95q0 24 -7 42t-23.5 30.5t-31.5 20t-44 13.5t-46.5 8.5t-52.5 6.5l-24 -251h10z" />
    <glyph glyph-name="percent" unicode="%" horiz-adv-x="945" 
d="M203 359h-1q-73 1 -118.5 53t-45.5 138t45.5 137.5t118.5 52.5h1q73 -1 118.5 -52.5t45.5 -137.5t-45.5 -138t-118.5 -53zM610 723l39 -15l-304 -686l-40 16zM82 550q0 -68 34 -109.5t87 -41.5q52 0 85.5 41.5t33.5 109.5t-33.5 109t-85.5 41q-53 0 -87 -41t-34 -109z
M741 371q73 0 119 -52t46 -138q0 -87 -46 -139t-119 -52t-118.5 52t-45.5 139q0 86 45.5 138t118.5 52zM741 30q53 0 86.5 41.5t33.5 109.5t-33.5 109t-86.5 41t-86.5 -41t-33.5 -109t33.5 -109.5t86.5 -41.5z" />
    <glyph glyph-name="ampersand" unicode="&#x26;" horiz-adv-x="741" 
d="M618 44h86v-44h-116l-82 86q-92 -95 -227 -95q-101 0 -163 54.5t-62 143.5q0 79 46 128.5t118 70.5q-80 87 -80 167q0 74 48 118t133 44q83 0 131 -42.5t38 -97.5q-6 -33 -36 -33q-14 0 -22.5 9t-8.5 22q0 19 16 22q2 27 -32 50t-86 23q-61 0 -94.5 -31.5t-33.5 -85.5
q0 -44 32 -90.5t87 -101.5l193 -198q55 87 55 186v40h120v-44h-74q0 -122 -66 -218zM284 38q111 0 187 84l-203 214q-2 2 -5.5 6t-7 7t-6.5 6q-64 -17 -103 -59t-39 -108q0 -67 48.5 -108.5t128.5 -41.5z" />
    <glyph glyph-name="quotesingle" unicode="'" horiz-adv-x="201" 
d="M124 780v-228h-47v228h47z" />
    <glyph glyph-name="parenleft" unicode="(" horiz-adv-x="306" 
d="M114 337q0 -277 158 -403l-32 -40q-182 139 -182 443q0 305 182 443l32 -40q-158 -126 -158 -403z" />
    <glyph glyph-name="parenright" unicode=")" horiz-adv-x="306" 
d="M192 337q0 278 -158 403l32 40q182 -139 182 -443q0 -302 -182 -443l-32 40q158 125 158 403z" />
    <glyph glyph-name="asterisk" unicode="*" horiz-adv-x="344" 
d="M247 691q21 10 28 -10q6 -17 -11 -26l-6 -2l-65 -16l48 -52q14 -15 -1 -29q-16 -14 -30 0q-3 3 -5 7l-32 59l-32 -59q-12 -22 -31 -11q-17 10 -9 26l4 6l48 53l-67 16q-18 4 -16 23q2 18 17 18l11 -3l61 -29l-8 68q-1 11 5.5 17.5t16.5 5.5q10 1 16 -5.5t5 -17.5l-8 -68z
" />
    <glyph glyph-name="plus" unicode="+" horiz-adv-x="509" 
d="M457 310v-41h-181v-182h-42v182h-181v42h180v179h43v-180h181z" />
    <glyph glyph-name="comma" unicode="," horiz-adv-x="244" 
d="M76 -90v31q23 0 40 15.5t20 37.5q-7 -4 -18 -4q-18 0 -31 13t-13 33q0 19 13.5 31.5t33.5 12.5q40 0 50 -45q10 -48 -21 -89q-28 -36 -74 -36z" />
    <glyph glyph-name="hyphen" unicode="-" horiz-adv-x="543" 
d="M468 287v-47h-392v47h392z" />
    <glyph glyph-name="period" unicode="." horiz-adv-x="237" 
d="M118 -10q-19 0 -32 13.5t-13 33.5q0 19 13 32t32 13t32.5 -13t13.5 -32q0 -20 -13.5 -33.5t-32.5 -13.5z" />
    <glyph glyph-name="slash" unicode="/" horiz-adv-x="445" 
d="M40 -10l321 743h44l-321 -743h-44z" />
    <glyph glyph-name="zero" unicode="0" horiz-adv-x="734" 
d="M368 740q136 0 220.5 -100t84.5 -274t-84.5 -275t-220.5 -101q-141 0 -223.5 99.5t-82.5 276.5q0 176 82 275t224 99zM368 39q111 0 180 87t69 239q0 153 -69 239.5t-180 86.5q-117 0 -183.5 -85.5t-66.5 -240.5t66.5 -240.5t183.5 -85.5z" />
    <glyph glyph-name="one" unicode="1" horiz-adv-x="476" 
d="M293 44h174v-44h-418v44h189v631l-185 -43l-4 45l213 53h31v-686z" />
    <glyph glyph-name="two" unicode="2" horiz-adv-x="663" 
d="M550 189h48v-189h-548v32l304 270q51 46 71.5 65t48 51.5t37 59t9.5 58.5q0 72 -53.5 113.5t-154.5 41.5q-89 0 -144 -36.5t-56 -87.5q10 -2 17 -11t7 -20q0 -16 -11 -27t-27 -11q-18 0 -28.5 11.5t-12.5 29.5q-7 91 65.5 146t189.5 55q128 0 195.5 -54.5t68.5 -148.5
q0 -83 -71 -160q-26 -28 -121 -111l-249 -220h415v143z" />
    <glyph glyph-name="three" unicode="3" horiz-adv-x="666" 
d="M426 373q80 -16 129.5 -60.5t50.5 -116.5q0 -95 -76 -150t-200 -55q-133 0 -206.5 52t-71.5 142q1 18 12 29.5t29 11.5q17 0 27.5 -10.5t10.5 -27.5q0 -25 -23 -30q4 -46 65 -82t157 -36q101 0 161 42t59 116q-1 67 -59 109.5t-157 42.5h-72v45h71q83 0 138.5 45
t56.5 106q0 69 -51 106.5t-146 38.5q-87 0 -140.5 -34t-55.5 -85q24 -5 24 -31q0 -17 -10.5 -27t-27.5 -10t-28 11t-13 29q-6 91 65 143.5t186 52.5q120 -1 186.5 -51.5t65.5 -138.5q0 -63 -42.5 -110t-114.5 -67z" />
    <glyph glyph-name="four" unicode="4" horiz-adv-x="652" 
d="M627 205v-47h-165v-160h-55v160h-386v35q233 340 252 545h57q-21 -211 -241 -533h318v221h55v-221h165z" />
    <glyph glyph-name="five" unicode="5" horiz-adv-x="632" 
d="M585 218q1 -104 -72.5 -165.5t-194.5 -61.5q-128 0 -201 53t-71 138q2 41 41 41q18 0 28 -10.5t10 -27.5q0 -23 -23 -30q4 -45 63.5 -80t152.5 -35q96 0 154 48t57 130q0 85 -54.5 131t-148.5 46q-96 0 -183 -25l-49 15l39 345l402 -1v-49h-358l-29 -267q82 31 181 31
q117 0 186 -59.5t70 -166.5z" />
    <glyph glyph-name="six" unicode="6" horiz-adv-x="644" 
d="M589 209q0 -98 -70.5 -158t-183.5 -60h-1q-270 0 -270 365q0 182 77.5 283t221.5 101q96 0 145.5 -42.5t42.5 -106.5q-2 -19 -13 -30t-29 -10q-16 0 -27 10.5t-11 25.5q0 27 23 31q2 30 -33.5 51.5t-98.5 21.5q-122 0 -182.5 -88t-60.5 -249q0 -20 1 -30q37 53 98.5 80.5
t135.5 26.5q112 -1 173.5 -60.5t61.5 -161.5zM335 40q90 0 144.5 46t54.5 123q0 81 -49 127t-139 46q-81 0 -139.5 -34.5t-79.5 -101.5q33 -206 208 -206z" />
    <glyph glyph-name="seven" unicode="7" horiz-adv-x="570" 
d="M552 730l7 -35q-134 -158 -202.5 -326t-73.5 -369h-60q13 379 267 684h-409v-143h-47v189h518z" />
    <glyph glyph-name="eight" unicode="8" horiz-adv-x="668" 
d="M470 393q68 -25 104.5 -74.5t36.5 -116.5q0 -96 -75.5 -154t-201.5 -58t-201.5 58t-75.5 154q0 67 36.5 116.5t104.5 74.5q-100 49 -100 158q0 83 64 133.5t172 50.5t172 -50.5t64 -133.5q0 -110 -100 -158zM154 551q0 -62 46 -99t134 -37t134 37t46 99q0 61 -48.5 98.5
t-131.5 37.5t-131.5 -37.5t-48.5 -98.5zM334 38q100 0 161 45t61 119q0 76 -58.5 119.5t-163.5 43.5t-163 -43.5t-58 -119.5q0 -74 60.5 -119t160.5 -45z" />
    <glyph glyph-name="nine" unicode="9" horiz-adv-x="640" 
d="M315 739q262 0 261 -352q-2 -398 -295 -398q-98 0 -147.5 40t-41.5 108q6 40 42 39q17 0 27 -11t10 -27q-2 -27 -24 -30q0 -27 34.5 -48.5t100.5 -21.5q127 0 181.5 89.5t56.5 255.5q-69 -99 -225 -99q-110 0 -174 65t-64 164q1 109 73 167.5t185 58.5zM300 333
q83 0 140.5 33t76.5 98q-23 225 -203 225q-87 0 -144 -44t-57 -132q0 -78 50.5 -129t136.5 -51z" />
    <glyph glyph-name="colon" unicode=":" horiz-adv-x="243" 
d="M121 359q-18 0 -31.5 14t-13.5 34q0 17 13.5 30.5t31.5 13.5q19 0 33 -13.5t14 -30.5q0 -20 -13.5 -34t-33.5 -14zM121 -10q-18 0 -31.5 14t-13.5 33t13.5 32t31.5 13q20 0 33.5 -13t13.5 -32t-14 -33t-33 -14z" />
    <glyph glyph-name="semicolon" unicode=";" horiz-adv-x="251" 
d="M124 357q-20 0 -33.5 14.5t-13.5 35.5q0 18 14 32t33 14q20 0 34 -14t14 -32q0 -21 -14 -35.5t-34 -14.5zM80 -87v28q23 0 40.5 15.5t19.5 37.5q-7 -4 -18 -4q-18 0 -31 13t-13 33q0 19 13.5 31.5t33.5 12.5q39 0 49 -44q10 -47 -21 -88q-27 -35 -73 -35z" />
    <glyph glyph-name="less" unicode="&#x3c;" horiz-adv-x="495" 
d="M416 476v-55l-317 -150l317 -143v-55l-368 172v51z" />
    <glyph glyph-name="equal" unicode="=" horiz-adv-x="534" 
d="M453 358v-44h-372v44h372zM453 192v-44h-372v44h372z" />
    <glyph glyph-name="greater" unicode="&#x3e;" horiz-adv-x="495" 
d="M79 476l368 -180v-51l-368 -172v55l317 143l-317 150v55z" />
    <glyph glyph-name="question" unicode="?" horiz-adv-x="592" 
d="M284 740q120 0 185.5 -57.5t65.5 -157.5q0 -96 -59.5 -162t-167.5 -73l-8 -136h-35l-9 178h23q103 0 152 53t49 138q0 78 -51.5 123t-144.5 45q-86 0 -138 -39t-54 -87q10 -1 17 -10t7 -20q0 -17 -10.5 -27.5t-26.5 -10.5q-18 0 -29 11.5t-13 29.5q-7 88 62.5 145
t184.5 57zM283 82q19 0 32.5 -13t13.5 -32t-13.5 -33t-32.5 -14t-32.5 14t-13.5 33t13.5 32t32.5 13z" />
    <glyph glyph-name="at" unicode="@" horiz-adv-x="943" 
d="M529 743q165 0 266 -95t101 -244q0 -129 -55 -205.5t-145 -76.5q-87 0 -96 70q-69 -72 -175 -72q-76 0 -122.5 46.5t-46.5 125.5q0 113 66.5 183t175.5 70q104 0 146 -73l13 65h47l-57 -307q-11 -65 55 -65q67 0 107.5 64t40.5 169q0 132 -90.5 215.5t-237.5 83.5
q-184 0 -300 -111t-116 -287q0 -139 87.5 -225t231.5 -86q127 0 230 37l-20 -49q-109 -34 -218 -34q-161 0 -259.5 97.5t-98.5 253.5q0 201 130.5 325.5t339.5 124.5zM434 164q54 0 99.5 21.5t69.5 61.5l8 44l21 113q-16 98 -135 98q-87 0 -140 -56t-53 -148q0 -61 35 -97.5
t95 -36.5z" />
    <glyph glyph-name="A" unicode="A" horiz-adv-x="828" 
d="M734 44h105v-44h-273v44h111l-64 162h-396l-69 -162h110v-44h-258v44h93l276 640h-160v46h251zM237 251h358l-170 433h-2z" />
    <glyph glyph-name="B" unicode="B" horiz-adv-x="807" 
d="M588 381q159 -40 159 -188q0 -84 -62.5 -138.5t-180.5 -54.5h-455v44h111v642h-109v44h429q108 0 169.5 -47.5t61.5 -140.5q0 -54 -32 -96.5t-91 -64.5zM480 684h-265v-285h262q83 0 130.5 40.5t47.5 101.5q0 143 -175 143zM504 46q92 0 139.5 42.5t47.5 105.5
q0 48 -21 82t-56.5 49.5t-67.5 21.5t-68 6h-263v-307h289z" />
    <glyph glyph-name="C" unicode="C" horiz-adv-x="822" 
d="M715 232h53q-17 -112 -107.5 -177t-225.5 -65q-165 0 -271.5 103.5t-106.5 272.5t106.5 271.5t273.5 102.5q148 0 241.5 -81t86.5 -201q-5 -42 -42 -42q-17 0 -28 11.5t-11 27.5q0 29 24 35q2 82 -76 141.5t-195 59.5q-141 0 -232.5 -88t-91.5 -238t91.5 -238t230.5 -88
q111 0 186.5 49.5t93.5 143.5z" />
    <glyph glyph-name="D" unicode="D" horiz-adv-x="848" 
d="M421 730q167 0 267.5 -95.5t100.5 -268.5q0 -174 -100.5 -270t-267.5 -96h-372v44h111v642h-109v44h370zM421 46q139 0 226 82.5t87 236.5t-87 236.5t-226 82.5h-206v-638h206z" />
    <glyph glyph-name="E" unicode="E" horiz-adv-x="719" 
d="M605 189h49v-189h-605v44h111v642h-109v44h602v-189h-49v143h-389v-299h317v-46h-317v-293h390v143z" />
    <glyph glyph-name="F" unicode="F" horiz-adv-x="700" 
d="M666 730v-189h-49v143h-402v-307h330v-46h-330v-287h149v-44h-315v44h111v642h-109v44h615z" />
    <glyph glyph-name="G" unicode="G" horiz-adv-x="840" 
d="M771 318v-318h-39l-9 149q-43 -75 -122 -117t-175 -42q-159 0 -263.5 103.5t-104.5 272.5t106 271.5t273 102.5q144 0 238.5 -74t84.5 -186q-4 -42 -43 -42q-16 0 -27 11t-11 26q0 29 25 36q3 68 -75.5 124t-191.5 56q-141 0 -232 -88t-91 -238q0 -149 89.5 -237.5
t222.5 -88.5q99 0 180 50t115 152v31h-275v46h325z" />
    <glyph glyph-name="H" unicode="H" horiz-adv-x="935" 
d="M878 686h-104v-642h104v-44h-270v44h112v299h-505v-299h103v-44h-269v44h111v642h-109v44h267v-44h-103v-296h505v296h-109v44h267v-44z" />
    <glyph glyph-name="I" unicode="I" horiz-adv-x="375" 
d="M321 686h-106v-642h106v-44h-267v44h106v642h-106v44h267v-44z" />
    <glyph glyph-name="J" unicode="J" horiz-adv-x="669" 
d="M558 730l-1 -476q0 -117 -71 -190.5t-193 -73.5q-129 0 -198.5 60t-67.5 160q1 19 12.5 30.5t29.5 11.5t28.5 -11t10.5 -27q0 -30 -26 -36q6 -61 60.5 -99.5t150.5 -38.5q95 0 152 59.5t57 154.5h1l1 429h-298v47h352z" />
    <glyph glyph-name="K" unicode="K" horiz-adv-x="816" 
d="M707 44h108v-44h-138l-290 381l-172 -171v-166h103v-44h-269v44h111v642h-109v44h267v-44h-103v-416l413 416h-109v44h269v-44h-93l-273 -270z" />
    <glyph glyph-name="L" unicode="L" horiz-adv-x="659" 
d="M582 196h48v-196h-581v44h111v642h-109v44h267v-44h-103v-640h367v150z" />
    <glyph glyph-name="M" unicode="M" horiz-adv-x="1031" 
d="M893 44h96v-44h-272v44h121l-43 592l-260 -408h-36l-261 410l-41 -594h112v-44h-272v44h106l47 642h-115v44h165l278 -444l277 444h165v-44h-115z" />
    <glyph glyph-name="N" unicode="N" horiz-adv-x="927" 
d="M882 730v-44h-103v-686h-48l-517 640v-596h112v-44h-277v44h111v642h-109v44h158l516 -643v599h-108v44h265z" />
    <glyph glyph-name="O" unicode="O" horiz-adv-x="873" 
d="M815 366q0 -170 -105 -273t-273 -103h-1q-166 0 -272 103.5t-106 272.5t105.5 271.5t272.5 102.5h1q168 0 273 -102t105 -272zM437 39q141 0 232 88t91 238t-91 238t-232 88q-140 0 -232 -88t-92 -238q0 -149 92 -237.5t232 -88.5z" />
    <glyph glyph-name="P" unicode="P" horiz-adv-x="777" 
d="M434 730q53 0 96.5 -7t83.5 -24.5t66.5 -45t42.5 -71.5t16 -102q0 -119 -86 -184t-219 -65h-219v-187h131v-44h-297v44h111v642h-109v44h383zM435 277q107 0 178 53t71 150q0 49 -13.5 86t-35 59t-54.5 35.5t-67.5 18.5t-78.5 5h-220v-407h220z" />
    <glyph glyph-name="Q" unicode="Q" horiz-adv-x="873" 
d="M857 -41q14 -2 20 -15t2 -28q-9 -33 -51 -55.5t-117 -22.5q-93 0 -173.5 43t-125.5 110q-157 8 -255.5 110.5t-98.5 264.5q0 169 105.5 271.5t272.5 102.5h1q168 0 273 -102t105 -272q0 -160 -94.5 -262t-249.5 -113q45 -51 108 -80t132 -29q95 0 112 32q-8 10 -3 25
q9 26 37 20zM113 365q0 -149 92 -237.5t232 -88.5q141 0 232 88t91 238t-91 238t-232 88q-140 0 -232 -88t-92 -238z" />
    <glyph glyph-name="R" unicode="R" horiz-adv-x="803" 
d="M662 44h112v-44h-142l-225 264h-192v-220h139v-44h-305v44h111v642h-109v44h377q135 0 214.5 -56t79.5 -178q0 -95 -70 -157t-182 -73zM215 683v-373h215q102 0 169.5 50.5t67.5 135.5q0 187 -237 187h-215z" />
    <glyph glyph-name="S" unicode="S" horiz-adv-x="703" 
d="M134 548q0 -52 28.5 -84t74 -45t100.5 -20.5t109.5 -17t100 -27t74 -57.5t28.5 -102q0 -92 -76.5 -148t-215.5 -56q-147 0 -225.5 44.5t-77.5 132.5q1 18 12 29.5t29 11.5q17 0 27.5 -10.5t10.5 -27.5q0 -24 -23 -31q5 -43 71 -71.5t176 -28.5q114 0 175.5 41.5
t61.5 112.5q0 52 -28.5 83.5t-74 44.5t-100 20.5t-109.5 17t-100.5 27t-74 57.5t-28.5 103q0 87 71.5 140t208.5 53q119 0 192 -50.5t66 -140.5q-2 -18 -12.5 -29t-28.5 -11q-16 0 -27 10.5t-11 27.5q0 11 7 20t17 10q-2 50 -57 82t-146 32q-112 0 -168.5 -38.5
t-56.5 -104.5z" />
    <glyph glyph-name="T" unicode="T" horiz-adv-x="717" 
d="M685 730v-194h-48v148h-251v-640h114v-44h-290v44h121v640h-250v-148h-49v194h653z" />
    <glyph glyph-name="U" unicode="U" horiz-adv-x="877" 
d="M839 730v-44h-103v-383q0 -158 -79 -235.5t-216 -77.5t-216.5 77.5t-79.5 235.5v383h-109v44h267v-44h-103v-383q0 -138 65 -200t176 -62q240 0 240 262v383h-109v44h267z" />
    <glyph glyph-name="V" unicode="V" horiz-adv-x="824" 
d="M832 730v-44h-105l-280 -686h-63l-293 686h-95v44h256v-44h-103l268 -642l254 642h-109v44h270z" />
    <glyph glyph-name="W" unicode="W" horiz-adv-x="1089" 
d="M1091 730v-44h-88l-188 -686h-54l-214 492l-214 -492h-53l-196 686h-91v44h263v-44h-114l168 -615l215 494h44l216 -499l163 620h-119v44h262z" />
    <glyph glyph-name="X" unicode="X" horiz-adv-x="766" 
d="M665 44h94v-44h-284v44h127l-224 292l-235 -292h127v-44h-266v44h80l266 327l-242 315h-86v44h257v-44h-108l216 -281l225 281h-121v44h258v-44h-80l-256 -315z" />
    <glyph glyph-name="Y" unicode="Y" horiz-adv-x="752" 
d="M640 686l-231 -404v-238h113v-44h-282v44h114v238l-255 404h-94v44h249v-44h-94l223 -363l202 363h-102v44h262v-44h-105z" />
    <glyph glyph-name="Z" unicode="Z" horiz-adv-x="712" 
d="M624 189h44v-189h-621v33l524 651h-464v-143h-46v189h580v-32l-524 -652h507v143z" />
    <glyph glyph-name="bracketleft" unicode="[" horiz-adv-x="325" 
d="M292 734h-129v-794h129v-46h-177v886h177v-46z" />
    <glyph glyph-name="backslash" unicode="\" horiz-adv-x="446" 
d="M407 -10h-46l-321 743h46z" />
    <glyph glyph-name="bracketright" unicode="]" horiz-adv-x="325" 
d="M211 780v-886h-177v46h129v794h-129v46h177z" />
    <glyph glyph-name="asciicircum" unicode="^" horiz-adv-x="489" 
d="M415 638l-18 -31l-153 76l-152 -76l-18 31l169 103z" />
    <glyph glyph-name="underscore" unicode="_" horiz-adv-x="579" 
d="M526 0v-47h-472v47h472z" />
    <glyph glyph-name="grave" unicode="`" horiz-adv-x="600" 
d="M235 745l186 -127l-17 -30l-196 107z" />
    <glyph glyph-name="a" unicode="a" horiz-adv-x="681" 
d="M560 44h89v-44h-138v85q-69 -95 -202 -95q-117 0 -187 74.5t-70 197.5q0 121 69.5 194.5t185.5 73.5q133 0 201 -98v88h52v-476zM311 37q69 0 120.5 30t74.5 84v202q-21 62 -72 96t-121 34q-95 0 -151.5 -61t-56.5 -161q0 -102 56 -163t150 -61z" />
    <glyph glyph-name="b" unicode="b" horiz-adv-x="661" 
d="M355 530q118 0 186.5 -73t68.5 -195q0 -125 -69 -198.5t-188 -73.5q-134 0 -204 98l-13 -88h-34v736h-109v44h155v-357q67 107 207 107zM350 37q95 0 151 60.5t56 163.5q0 102 -55.5 162t-152.5 60q-71 0 -122 -35t-73 -98v-194q22 -56 74 -87.5t122 -31.5z" />
    <glyph glyph-name="c" unicode="c" horiz-adv-x="584" 
d="M499 304q-14 0 -23.5 9t-9.5 22q0 23 19 29q0 39 -44.5 79t-128.5 40q-91 0 -150 -61.5t-59 -160.5q0 -101 58.5 -162.5t150.5 -61.5q134 0 174 114h50q-23 -74 -80.5 -117.5t-143.5 -43.5q-116 0 -189 75.5t-73 196.5q0 119 73 193.5t191 74.5q109 0 168.5 -61
t51.5 -130q-4 -35 -35 -35z" />
    <glyph glyph-name="d" unicode="d" horiz-adv-x="674" 
d="M555 44h87v-44h-137v81q-70 -91 -200 -91q-116 0 -184.5 74t-68.5 198q0 121 68.5 194.5t182.5 73.5q135 0 199 -89v295h-117v44h170v-736zM307 37q140 0 193 102v229q-50 115 -191 115q-94 0 -149 -60.5t-55 -161.5q0 -102 55.5 -163t146.5 -61z" />
    <glyph glyph-name="e" unicode="e" horiz-adv-x="589" 
d="M305 530q109 0 178.5 -76.5t55.5 -203.5l-5 -6h-47l-383 1q5 -95 59.5 -152t142.5 -57q129 0 169 91h53q-23 -65 -81.5 -101t-140.5 -36q-116 0 -185.5 75t-69.5 197q0 118 71.5 193t182.5 75zM305 484q-78 0 -134 -53.5t-66 -140.5l385 -1q-1 90 -53.5 142.5
t-131.5 52.5z" />
    <glyph glyph-name="f" unicode="f" horiz-adv-x="377" 
d="M285 780q53 0 84.5 -26.5t27.5 -64.5q-5 -34 -36 -34q-14 0 -23 8.5t-9 22.5q0 18 15 25q-2 11 -17.5 18.5t-40.5 7.5q-83 0 -83 -100v-117h148v-46h-148v-430h131v-44h-296v44h112v430h-119v46h119v109q0 151 135 151z" />
    <glyph glyph-name="g" unicode="g" horiz-adv-x="664" 
d="M512 520h50v-498q0 -113 -66 -172t-184 -59q-99 0 -150 35.5t-61 77.5q-4 22 5.5 34.5t27.5 12.5q15 0 23.5 -9.5t8.5 -23.5q0 -13 -10 -20q13 -22 52.5 -41t103.5 -19q200 0 200 184v76q-70 -98 -204 -98q-114 0 -184.5 71t-70.5 191q0 122 68 195t185 73
q140 0 206 -106v96zM311 47q70 0 122 31.5t74 87.5v181q-21 64 -72.5 100t-122.5 36q-96 0 -151 -60t-55 -162q0 -101 55 -157.5t150 -56.5z" />
    <glyph glyph-name="h" unicode="h" horiz-adv-x="713" 
d="M591 44h112v-44h-267v44h103v245q0 89 -44.5 141.5t-120.5 52.5q-71 0 -120 -37.5t-70 -98.5v-303h103v-44h-266v44h110v692h-108v44h155v-360q63 110 200 110q98 0 155.5 -64.5t57.5 -169.5v-252z" />
    <glyph glyph-name="i" unicode="i" horiz-adv-x="328" 
d="M164 655q-20 0 -33.5 13.5t-13.5 33.5q0 18 14 31.5t33 13.5t32.5 -13.5t13.5 -31.5q0 -20 -13.5 -33.5t-32.5 -13.5zM199 44h103v-44h-266v44h111v432h-109v44h161v-476z" />
    <glyph glyph-name="j" unicode="j" horiz-adv-x="297" 
d="M167 747q19 0 32.5 -13.5t13.5 -31.5q0 -20 -13.5 -33.5t-32.5 -13.5q-20 0 -33.5 13.5t-13.5 33.5q0 18 14 31.5t33 13.5zM196 520v-557q0 -88 -30 -127.5t-95 -39.5q-39 0 -67.5 19t-33.5 55q-3 17 6 29t25 14q13 1 23 -7.5t11 -20.5q2 -17 -9 -25q10 -21 46 -21
q39 0 55 26t16 92v519h-108v44h161z" />
    <glyph glyph-name="k" unicode="k" horiz-adv-x="669" 
d="M550 44h119v-44h-149l-211 270l-125 -122v-104h105v-44h-268v44h110v692h-108v44h161v-573l272 269h-91v44h258v-44h-104l-177 -173z" />
    <glyph glyph-name="l" unicode="l" horiz-adv-x="313" 
d="M184 44h103v-44h-266v44h110v692h-108v44h161v-736z" />
    <glyph glyph-name="m" unicode="m" horiz-adv-x="1136" 
d="M1020 44h103v-44h-267v44h111v245q0 92 -46.5 142.5t-126.5 50.5q-67 0 -116 -36t-71 -95q5 -30 5 -57v-250h103v-44h-259v44h104v245q0 92 -46.5 142.5t-127.5 50.5q-69 0 -117.5 -37t-69.5 -98v-303h103v-44h-266v44h111v432h-109v44h156v-98q63 108 197 108
q72 0 124 -32.5t77 -92.5q61 125 205 125q103 0 163 -63.5t60 -172.5v-250z" />
    <glyph glyph-name="n" unicode="n" horiz-adv-x="734" 
d="M616 44h104v-44h-266v44h110v245q0 93 -47.5 143.5t-127.5 50.5q-67 0 -118.5 -37.5t-71.5 -98.5v-303h103v-44h-266v44h111v432h-109v44h155v-99q66 109 203 109q101 0 160.5 -62t59.5 -170v-254z" />
    <glyph glyph-name="o" unicode="o" horiz-adv-x="635" 
d="M584 262q0 -121 -73 -196.5t-193 -75.5h-1q-120 0 -193 75.5t-73 196.5q0 119 73 193.5t193 74.5h1q119 0 192.5 -74.5t73.5 -193.5zM317 37q95 0 154 61.5t59 162.5q0 100 -59.5 161t-153.5 61t-153.5 -61t-59.5 -161q0 -101 59 -162.5t154 -61.5z" />
    <glyph glyph-name="p" unicode="p" horiz-adv-x="694" 
d="M388 530q118 0 186.5 -73t68.5 -195q0 -125 -69 -198.5t-188 -73.5q-134 0 -204 98v-246h123v-44h-284v44h110v634h-108v44h159v-96q66 106 206 106zM383 37q95 0 151 60.5t56 163.5q0 102 -55.5 162t-152.5 60q-72 0 -123.5 -35.5t-72.5 -100.5v-191h1q22 -56 74 -87.5
t122 -31.5z" />
    <glyph glyph-name="q" unicode="q" horiz-adv-x="664" 
d="M563 -158h111v-44h-284v44h123v246q-70 -98 -204 -98q-119 0 -188 73.5t-69 198.5q0 122 68.5 195t186.5 73q140 0 206 -106v96h50v-678zM311 37q71 0 123 31.5t74 87.5v191q-20 64 -71.5 100t-123.5 36q-97 0 -152.5 -60t-55.5 -162q0 -103 56 -163.5t150 -60.5z" />
    <glyph glyph-name="r" unicode="r" horiz-adv-x="493" 
d="M361 530q58 0 87.5 -32.5t23.5 -80.5q-5 -35 -37 -35q-13 0 -22.5 8.5t-9.5 21.5q0 24 18 27q-1 21 -19.5 33.5t-48.5 12.5q-49 0 -94 -36.5t-60 -103.5v-301h105v-44h-268v44h111v432h-109v44h154v-101q25 51 70 81t99 30z" />
    <glyph glyph-name="s" unicode="s" horiz-adv-x="538" 
d="M104 94q11 -25 57.5 -41t110.5 -16q79 0 122 27.5t42 72.5q-1 39 -28.5 61.5t-68.5 29t-89 15.5t-89 20.5t-68 44t-27 84.5q0 60 51 99t151 39q108 0 155.5 -39.5t43.5 -94.5q-1 -14 -9.5 -25.5t-24.5 -11.5q-14 0 -24 9t-10 23q0 21 18 26q-1 13 -11.5 26.5t-46.5 26.5
t-91 13q-74 0 -112 -26t-38 -64q0 -46 38 -69.5t92.5 -32t108.5 -19t92.5 -44t38.5 -93.5q0 -65 -56 -105t-160 -40q-191 0 -223 108q-6 24 4 37t28 13q13 0 22.5 -9t9.5 -21q0 -18 -9 -24z" />
    <glyph glyph-name="t" unicode="t" horiz-adv-x="428" 
d="M399 474h-222v-321q0 -116 107 -116q57 0 113 28v-48q-57 -27 -121 -27q-73 0 -112 40t-39 120v324h-86v46h86v128h52v-128h222v-46z" />
    <glyph glyph-name="u" unicode="u" horiz-adv-x="698" 
d="M566 44h109v-44h-155v99q-65 -109 -197 -109q-89 0 -147.5 59.5t-58.5 149.5v277h-103v44h155v-320q0 -70 46 -116t113 -47q64 -1 115 37t71 99v303h-103v44h155v-476z" />
    <glyph glyph-name="v" unicode="v" horiz-adv-x="684" 
d="M680 520v-44h-99l-209 -476h-62l-208 476h-97l-1 44h238v-44h-83l182 -431l181 431h-89v44h247z" />
    <glyph glyph-name="w" unicode="w" horiz-adv-x="921" 
d="M920 520v-44h-94l-168 -476h-63l-133 406l-141 -406h-63l-161 476h-92l-1 44h238v-44h-91l138 -421l143 417h60l135 -420l146 424h-89v44h236z" />
    <glyph glyph-name="x" unicode="x" horiz-adv-x="626" 
d="M530 44h82v-44h-210v44h65l-156 195l-153 -195h62v-44h-206l1 44h83l177 222l-172 210h-86l-1 44h204v-44h-53l146 -185l140 185h-51v44h207v-44h-98l-164 -212z" />
    <glyph glyph-name="y" unicode="y" horiz-adv-x="680" 
d="M677 520v-44h-100l-249 -579q-45 -105 -132 -105q-35 0 -58 15.5t-27 44.5q-2 18 5.5 28.5t22.5 11.5q12 1 20.5 -6t10.5 -18q2 -15 -8 -23q7 -11 38 -11q51 0 80 64l43 102h-14l-207 476h-97l-1 44h241v-44h-85l182 -434l182 434h-92v44h245z" />
    <glyph glyph-name="z" unicode="z" horiz-adv-x="555" 
d="M467 116h48v-116h-474l-1 30l397 444h-343v-78h-47v124h455v-40l-386 -435l351 1v70z" />
    <glyph glyph-name="braceleft" unicode="{" horiz-adv-x="301" 
d="M155 428q0 -42 -15 -64t-33 -28q48 -13 48 -84l1 -203q0 -61 29 -85.5t71 -24.5v-45q-63 0 -104.5 31t-42.5 117l-1 209q0 28 -10 43.5t-20.5 18t-26.5 2.5v43q12 0 20 2t17.5 8.5t14.5 21.5t5 39l1 214q0 142 147 136v-44q-54 3 -77 -21.5t-23 -77.5z" />
    <glyph glyph-name="bar" unicode="|" horiz-adv-x="275" 
d="M115 0l-1 730h47v-730h-46z" />
    <glyph glyph-name="braceright" unicode="}" horiz-adv-x="301" 
d="M145 636q-1 53 -23.5 77.5t-76.5 21.5v44q146 6 146 -136l1 -214q0 -24 5 -39t14.5 -21.5t18 -8.5t20.5 -2v-43q-17 0 -27.5 -2.5t-20.5 -18t-10 -43.5l-1 -209q0 -46 -13 -77t-36 -45.5t-46 -20t-51 -5.5v45q42 0 71 24.5t29 85.5l1 203q0 71 47 84q-18 6 -32.5 28.5
t-14.5 63.5z" />
    <glyph glyph-name="asciitilde" unicode="~" horiz-adv-x="556" 
d="M476 311q-5 -40 -35 -64.5t-75 -23.5q-40 1 -95 27.5t-81 26.5q-59 2 -74 -54l-36 9q5 42 32.5 66.5t68.5 23.5q35 -1 92 -28t88 -27q64 -2 80 52z" />
    <glyph glyph-name="uni00A0" unicode="&#xa0;" horiz-adv-x="280" 
 />
    <glyph glyph-name="exclamdown" unicode="&#xa1;" horiz-adv-x="261" 
d="M176 524q0 -19 -13.5 -32t-32.5 -13t-32.5 13t-13.5 32t13.5 33t32.5 14t32.5 -14t13.5 -33zM157 -219h-54l10 622h34z" />
    <glyph glyph-name="cent" unicode="&#xa2;" horiz-adv-x="609" 
d="M502 191h49q-22 -74 -82 -117.5t-153 -43.5h-14l-10 -103l-39 4l10 104q-94 17 -151 89t-57 178q0 118 72.5 192.5t188.5 75.5l12 117l39 -3l-11 -116q99 -10 150 -67.5t44 -121.5q-4 -35 -36 -35q-13 0 -22.5 8.5t-9.5 22.5q0 23 18 27q1 35 -37 73t-112 46l-44 -444h10
q145 0 185 114zM108 301q0 -86 43.5 -144.5t116.5 -74.5l44 441q-89 -2 -146.5 -63t-57.5 -159z" />
    <glyph glyph-name="sterling" unicode="&#xa3;" horiz-adv-x="660" 
d="M612 106q7 -56 -33.5 -93t-127.5 -37q-54 0 -137.5 21.5t-158.5 18.5q-21 -32 -51 -31t-36 27q-5 23 10.5 37.5t44.5 14.5h15q48 77 43 140h-131v38h124q-4 14 -17.5 47.5t-21 64t-7.5 64.5q0 99 59 160.5t167 61.5h1q104 0 159 -57.5t46 -147.5q-5 -41 -42 -41
q-17 0 -27 10.5t-10 25.5q0 30 24 33q5 57 -36 93t-115 36q-84 0 -127.5 -48.5t-43.5 -126.5q0 -34 7 -63.5t19 -64t16 -47.5h240v-38h-234q5 -64 -45 -140q59 -2 135.5 -20t125.5 -18q125 0 125 80h40z" />
    <glyph glyph-name="currency" unicode="&#xa4;" horiz-adv-x="692" 
d="M606 310q0 -103 -65 -171l73 -61l-25 -30l-77 65q-67 -50 -161 -50h-1q-98 0 -166 54l-82 -69l-25 30l76 68q-58 66 -58 164q0 95 59 160l-77 64l25 30l80 -68q70 54 168 54h1q95 0 162 -50l76 64l25 -30l-71 -60q63 -66 63 -164zM351 109q90 0 146 56t56 144
q0 86 -56 140.5t-146 54.5t-147 -54.5t-57 -140.5q0 -88 57 -144t147 -56z" />
    <glyph glyph-name="yen" unicode="&#xa5;" horiz-adv-x="738" 
d="M699 578h-106l-168 -273h151v-36h-174l-7 -12v-56h153v-36h-153v-121h114v-44h-282v44h114v121h-165v36h165v56l-8 12h-185v36h162l-176 273h-94v44h247v-44h-93l169 -273h11l163 273h-97v44h259v-44z" />
    <glyph glyph-name="brokenbar" unicode="&#xa6;" horiz-adv-x="274" 
d="M114 429v301h47v-301h-47zM161 305v-305h-46l-1 305h47z" />
    <glyph glyph-name="section" unicode="&#xa7;" horiz-adv-x="656" 
d="M534 220q0 43 -25.5 69t-66 36t-89.5 15t-98.5 14t-90 26.5t-66 57.5t-25.5 101q0 80 67 134t181 54q113 0 184.5 -50.5t65.5 -140.5q-2 -18 -12.5 -29t-28.5 -11q-17 0 -27.5 10.5t-10.5 27.5q0 11 6.5 20t17.5 10q-2 50 -56 82t-139 32q-91 0 -141.5 -39.5t-50.5 -98.5
q0 -51 25.5 -81.5t65.5 -42.5t89 -18t98 -14t89 -24t65.5 -54.5t25.5 -99.5zM138 315q0 -47 25.5 -75.5t66 -40t89.5 -18t98 -15.5t89.5 -26t66 -55.5t25.5 -97.5q0 -80 -73.5 -130t-194.5 -50q-129 0 -200.5 48t-70.5 136q0 18 11 30.5t29 12.5q17 0 27.5 -11t10.5 -27
q0 -25 -23 -32q5 -44 64.5 -76.5t151.5 -32.5q96 0 154 36.5t58 95.5q0 49 -25.5 78t-65.5 40.5t-89 17.5t-98 15t-89 26.5t-65.5 58.5t-25.5 105z" />
    <glyph glyph-name="dieresis" unicode="&#xa8;" horiz-adv-x="600" 
d="M88 645q-17 0 -30 13t-13 31q0 17 13 29.5t30 12.5q18 0 30.5 -12.5t12.5 -29.5q0 -18 -12.5 -31t-30.5 -13zM256 645q-17 0 -30 13t-13 31q0 17 13 29.5t30 12.5q18 0 30.5 -12.5t12.5 -29.5q0 -18 -12.5 -31t-30.5 -13z" />
    <glyph glyph-name="copyright" unicode="&#xa9;" horiz-adv-x="920" 
d="M461 747q109 0 202 -54.5t147.5 -147.5t54.5 -202q0 -167 -118.5 -286t-285.5 -119t-286 119t-119 286t119 285.5t286 118.5zM461 -16q148 0 252.5 105.5t104.5 253.5t-104.5 253t-252.5 105t-253 -105t-105 -253q0 -149 104.5 -254t253.5 -105zM470 168q56 0 95.5 26.5
t48.5 69.5h46q-10 -61 -62 -100t-128 -39q-98 0 -157.5 59t-59.5 157q0 96 59.5 154.5t156.5 58.5q90 0 142.5 -49.5t45.5 -113.5q-2 -14 -11.5 -23t-23.5 -9t-25 10.5t-10 26.5q2 26 24 27q1 29 -39.5 59t-102.5 30q-76 0 -122 -47t-46 -125t45.5 -125t123.5 -47z" />
    <glyph glyph-name="ordfeminine" unicode="&#xaa;" horiz-adv-x="501" 
d="M388 446h52v-39h-95v47q-44 -53 -126 -53q-73 0 -118 46.5t-45 125.5q0 75 45 121t117 46q81 0 125 -53v48h45v-289zM223 448q43 0 75.5 19t43.5 52v101q-10 33 -43 53t-76 20q-52 0 -84.5 -32.5t-32.5 -88.5q0 -57 33.5 -90.5t83.5 -33.5z" />
    <glyph glyph-name="guillemotleft" unicode="&#xab;" horiz-adv-x="666" 
d="M43 247v47l261 161v-54l-219 -130l219 -124v-54zM590 455v-54l-219 -130l219 -124v-54l-261 154v47z" />
    <glyph glyph-name="registered" unicode="&#xae;" horiz-adv-x="920" 
d="M461 747q109 0 202 -54.5t147.5 -147.5t54.5 -202q0 -167 -118.5 -286t-285.5 -119t-286 119t-119 286t119 285.5t286 118.5zM461 -17q148 0 253 105.5t105 254.5t-105 254t-253 105q-149 0 -254.5 -105.5t-105.5 -253.5q0 -149 105.5 -254.5t254.5 -105.5zM519 305
l75 -110h67v-36h-92l-96 143h-99v-107h66v-36h-109v359h-57v39h209q72 0 115 -34t43 -92q0 -50 -33 -84t-89 -42zM374 517v-175h108q52 0 82.5 24t30.5 65t-30.5 63.5t-82.5 22.5h-108zM273 196h57l1 -37h-58v37z" />
    <glyph glyph-name="macron" unicode="&#xaf;" horiz-adv-x="600" 
d="M160 687h306v-44h-306v44z" />
    <glyph glyph-name="degree" unicode="&#xb0;" horiz-adv-x="441" 
d="M221 406q-72 0 -120 47.5t-48 120.5q0 72 48 119t120 47q71 0 118.5 -47t47.5 -119q0 -73 -47.5 -120.5t-118.5 -47.5zM221 446q53 0 89 36.5t36 91.5t-36 91t-89 36q-54 0 -90 -36t-36 -91t36 -91.5t90 -36.5z" />
    <glyph glyph-name="plusminus" unicode="&#xb1;" horiz-adv-x="545" 
d="M252 136v173h-173v43h172v171l43 1v-173h172v-42h-172v-173h-42zM71 41h402v-41h-402v41z" />
    <glyph glyph-name="acute" unicode="&#xb4;" horiz-adv-x="600" 
d="M392 746l29 -51l-197 -106l-18 31z" />
    <glyph glyph-name="paragraph" unicode="&#xb6;" horiz-adv-x="722" 
d="M674 730v-49h-98v-630q0 -116 -57.5 -179.5t-148.5 -63.5q-87 0 -126.5 38t-32.5 74q6 31 41 31q24 0 33 -23t-9 -41q30 -32 95 -32q69 0 110.5 51t41.5 143v632h-92v-704l-52 -1v288h-61q-134 0 -207.5 65t-73.5 173q0 104 73.5 166t207.5 62h356z" />
    <glyph glyph-name="periodcentered" unicode="&#xb7;" horiz-adv-x="239" 
d="M119 259q-19 0 -32 13.5t-13 33.5q0 18 13 31.5t32 13.5t33 -13.5t14 -31.5q0 -20 -14 -33.5t-33 -13.5z" />
    <glyph glyph-name="cedilla" unicode="&#xb8;" horiz-adv-x="600" 
d="M258 -81l3 84h44v-50q43 0 69.5 -21t26.5 -61q0 -41 -31 -66t-78 -25q-60 0 -95 33l18 27q34 -24 74 -24q30 0 49 14.5t19 38.5q0 50 -66 50h-33z" />
    <glyph glyph-name="ordmasculine" unicode="&#xba;" horiz-adv-x="453" 
d="M226 740q76 0 124 -47t48 -121q0 -76 -47.5 -123.5t-124.5 -47.5q-76 0 -123.5 47.5t-47.5 123.5q0 74 47.5 121t123.5 47zM226 447q54 0 87.5 34.5t33.5 89.5t-33 89t-88 34t-88 -34t-33 -89t33.5 -89.5t87.5 -34.5z" />
    <glyph glyph-name="guillemotright" unicode="&#xbb;" horiz-adv-x="666" 
d="M76 401v54l261 -161v-47l-261 -154v54l219 124zM362 455l261 -161v-47l-261 -154v54l219 124l-219 130v54z" />
    <glyph glyph-name="onequarter" unicode="&#xbc;" horiz-adv-x="923" 
d="M347 377h-284v37h123v270l-118 -24l-4 38l143 32h24v-316h116v-37zM674 599l27 -24l-453 -488l-29 26zM888 119v-37h-91v-82h-45v82h-207v27q60 68 87.5 125.5t31.5 126.5h45q-3 -66 -27.5 -121t-78.5 -121h149v120h45v-120h91z" />
    <glyph glyph-name="onehalf" unicode="&#xbd;" horiz-adv-x="885" 
d="M339 377h-284v37h124v271l-119 -25l-3 38l142 32h24v-316h116v-37zM663 597l27 -24l-453 -488l-29 27zM804 91h37v-91h-288l1 25l155 131q56 49 67 67q12 19 12 40q0 29 -24 45.5t-66 16.5q-41 0 -68 -15t-26 -36q14 -4 14 -21q0 -10 -8 -17.5t-19 -7.5q-12 0 -19.5 8
t-8.5 19q-4 51 36 79.5t99 28.5t95.5 -27.5t36.5 -72.5q0 -25 -13.5 -48.5t-28.5 -37.5t-51 -44l-114 -96h181v54z" />
    <glyph glyph-name="threequarters" unicode="&#xbe;" horiz-adv-x="902" 
d="M350 463q0 -49 -42.5 -78t-113.5 -29q-72 0 -108 28t-34 73q2 25 26 25q23 0 23 -22q0 -16 -13 -19q10 -47 106 -47q54 0 83.5 18.5t28.5 53.5q-1 68 -107 68h-44v34h44q41 0 68 20t27 51q1 29 -24.5 46t-69.5 17q-38 0 -64.5 -12t-27.5 -29q15 -2 15 -19q0 -10 -7 -17.5
t-18 -7.5q-26 0 -29 28q-4 46 35 70.5t96 24.5q63 -1 100 -27.5t36 -71.5q-2 -61 -68 -87q82 -23 82 -91zM655 599l27 -24l-453 -488l-29 26zM867 119v-37h-92v-82h-45v82h-206v27q112 123 117 252h46q-4 -65 -28 -120.5t-77 -121.5h148v120h45v-120h92z" />
    <glyph glyph-name="questiondown" unicode="&#xbf;" horiz-adv-x="582" 
d="M303 439q-19 0 -32.5 13t-13.5 32t13.5 33t32.5 14t32.5 -14t13.5 -33t-13.5 -32t-32.5 -13zM549 -17q7 -88 -62.5 -145t-184.5 -57q-120 0 -185.5 57.5t-65.5 157.5q0 96 59.5 162t167.5 73l8 136h35l9 -178h-23q-103 0 -152 -53t-49 -138q0 -78 51.5 -123t144.5 -45
q86 0 138 39t54 87q-10 1 -17 10t-7 20q0 17 10.5 27.5t26.5 10.5q18 0 29 -11.5t13 -29.5z" />
    <glyph glyph-name="Agrave" unicode="&#xc0;" horiz-adv-x="828" 
d="M516 821l-17 -29l-195 109l28 50zM734 44h105v-44h-273v44h111l-64 162h-396l-69 -162h110v-44h-258v44h93l276 640h-160v46h251zM237 251h358l-170 433h-2z" />
    <glyph glyph-name="Aacute" unicode="&#xc1;" horiz-adv-x="828" 
d="M555 898l-194 -112l-19 31l182 131zM734 44h105v-44h-273v44h111l-64 162h-396l-69 -162h110v-44h-258v44h93l276 640h-160v46h251zM237 251h358l-170 433h-2z" />
    <glyph glyph-name="Acircumflex" unicode="&#xc2;" horiz-adv-x="828" 
d="M411 875l-152 -76l-17 30l169 103l171 -103l-16 -30zM734 44h105v-44h-273v44h111l-64 162h-396l-69 -162h110v-44h-258v44h93l276 640h-160v46h251zM237 251h358l-170 433h-2z" />
    <glyph glyph-name="Atilde" unicode="&#xc3;" horiz-adv-x="828" 
d="M346 883q-42 0 -55 -42l-39 10q12 78 87 78q29 0 75 -25.5t66 -25.5q22 0 35 9t21 33l39 -8q-6 -39 -30 -59.5t-62 -19.5q-33 0 -75.5 25t-61.5 25zM734 44h105v-44h-273v44h111l-64 162h-396l-69 -162h110v-44h-258v44h93l276 640h-160v46h251zM237 251h358l-170 433h-2
z" />
    <glyph glyph-name="Adieresis" unicode="&#xc4;" horiz-adv-x="828" 
d="M328 825q-17 0 -30 13t-13 31q0 17 13 29.5t30 12.5q18 0 30.5 -12.5t12.5 -29.5q0 -18 -12.5 -31t-30.5 -13zM496 825q-17 0 -30 13t-13 31q0 17 13 29.5t30 12.5q18 0 30.5 -12.5t12.5 -29.5q0 -18 -12.5 -31t-30.5 -13zM734 44h105v-44h-273v44h111l-64 162h-396
l-69 -162h110v-44h-258v44h93l276 640h-160v46h251zM237 251h358l-170 433h-2z" />
    <glyph glyph-name="Aring" unicode="&#xc5;" horiz-adv-x="828" 
d="M411 790q-46 0 -75 27.5t-29 70.5t29 70.5t75 27.5t75 -27.5t29 -70.5t-29 -70.5t-75 -27.5zM411 948q-26 0 -44 -17t-18 -43t18 -43t44 -17t44 17t18 43t-18 43t-44 17zM734 44h105v-44h-273v44h111l-64 162h-396l-69 -162h110v-44h-258v44h93l276 640h-160v46h251z
M237 251h358l-170 433h-2z" />
    <glyph glyph-name="AE" unicode="&#xc6;" horiz-adv-x="1121" 
d="M1007 189h49v-189h-604v44h120v163h-319l-108 -163h106v-44h-258v44h90l423 640h-177v46h726v-189h-48v143h-380v-301h308v-46h-308v-291h380v143zM283 252h289v435z" />
    <glyph glyph-name="Ccedilla" unicode="&#xc7;" horiz-adv-x="822" 
d="M768 232q-17 -110 -105 -175t-219 -67v-37q43 0 69.5 -21t26.5 -61q0 -41 -31 -66t-78 -25q-60 0 -95 33l18 27q34 -24 74 -24q30 0 49 14.5t19 38.5q0 50 -66 50h-33l3 72q-152 11 -247.5 113t-95.5 262q0 169 106.5 271.5t273.5 102.5q148 0 241.5 -81t86.5 -201
q-5 -42 -42 -42q-17 0 -28 11.5t-11 27.5q0 29 24 35q2 82 -76 141.5t-195 59.5q-141 0 -232.5 -88t-91.5 -238t91.5 -238t230.5 -88q111 0 186.5 49.5t93.5 143.5h53z" />
    <glyph glyph-name="Egrave" unicode="&#xc8;" horiz-adv-x="719" 
d="M500 821l-17 -29l-195 109l28 50zM605 189h49v-189h-605v44h111v642h-109v44h602v-189h-49v143h-389v-299h317v-46h-317v-293h390v143z" />
    <glyph glyph-name="Eacute" unicode="&#xc9;" horiz-adv-x="719" 
d="M539 898l-194 -112l-19 31l182 131zM605 189h49v-189h-605v44h111v642h-109v44h602v-189h-49v143h-389v-299h317v-46h-317v-293h390v143z" />
    <glyph glyph-name="Ecircumflex" unicode="&#xca;" horiz-adv-x="719" 
d="M395 875l-152 -76l-17 30l169 103l171 -103l-16 -30zM605 189h49v-189h-605v44h111v642h-109v44h602v-189h-49v143h-389v-299h317v-46h-317v-293h390v143z" />
    <glyph glyph-name="Edieresis" unicode="&#xcb;" horiz-adv-x="719" 
d="M312 825q-17 0 -30 13t-13 31q0 17 13 29.5t30 12.5q18 0 30.5 -12.5t12.5 -29.5q0 -18 -12.5 -31t-30.5 -13zM480 825q-17 0 -30 13t-13 31q0 17 13 29.5t30 12.5q18 0 30.5 -12.5t12.5 -29.5q0 -18 -12.5 -31t-30.5 -13zM605 189h49v-189h-605v44h111v642h-109v44h602
v-189h-49v143h-389v-299h317v-46h-317v-293h390v143z" />
    <glyph glyph-name="Igrave" unicode="&#xcc;" horiz-adv-x="375" 
d="M290 821l-17 -29l-195 109l28 50zM321 686h-106v-642h106v-44h-267v44h106v642h-106v44h267v-44z" />
    <glyph glyph-name="Iacute" unicode="&#xcd;" horiz-adv-x="375" 
d="M329 898l-194 -112l-19 31l182 131zM321 730v-44h-106v-642h106v-44h-267v44h106v642h-106v44h267z" />
    <glyph glyph-name="Icircumflex" unicode="&#xce;" horiz-adv-x="375" 
d="M185 932l171 -103l-16 -30l-155 76l-152 -76l-17 30zM321 730v-44h-106v-642h106v-44h-267v44h106v642h-106v44h267z" />
    <glyph glyph-name="Idieresis" unicode="&#xcf;" horiz-adv-x="375" 
d="M102 825q-17 0 -30 13t-13 31q0 17 13 29.5t30 12.5q18 0 30.5 -12.5t12.5 -29.5q0 -18 -12.5 -31t-30.5 -13zM270 825q-17 0 -30 13t-13 31q0 17 13 29.5t30 12.5q18 0 30.5 -12.5t12.5 -29.5q0 -18 -12.5 -31t-30.5 -13zM321 686h-106v-642h106v-44h-267v44h106v642
h-106v44h267v-44z" />
    <glyph glyph-name="Eth" unicode="&#xd0;" horiz-adv-x="848" 
d="M421 730q167 0 267.5 -95.5t100.5 -268.5q0 -174 -100.5 -270t-267.5 -96h-372v44h111v303h-99v41h99v298h-109v44h370zM421 46q139 0 226 82.5t87 236.5t-87 236.5t-226 82.5h-206v-296h176v-41h-176v-301h206z" />
    <glyph glyph-name="Ntilde" unicode="&#xd1;" horiz-adv-x="927" 
d="M407 883q-41 0 -55 -42l-39 10q12 78 87 78q30 0 75 -25.5t66 -25.5q22 0 35 9t21 33l39 -8q-6 -39 -30 -59.5t-62 -19.5q-33 0 -75.5 25t-61.5 25zM882 730v-44h-103v-686h-48l-517 640v-596h112v-44h-277v44h111v642h-109v44h158l516 -643v599h-108v44h265z" />
    <glyph glyph-name="Ograve" unicode="&#xd2;" horiz-adv-x="873" 
d="M540 821l-17 -29l-195 109l28 50zM815 366q0 -170 -105 -273t-273 -103h-1q-166 0 -272 103.5t-106 272.5t105.5 271.5t272.5 102.5h1q168 0 273 -102t105 -272zM437 39q141 0 232 88t91 238t-91 238t-232 88q-140 0 -232 -88t-92 -238q0 -149 92 -237.5t232 -88.5z" />
    <glyph glyph-name="Oacute" unicode="&#xd3;" horiz-adv-x="873" 
d="M579 898l-194 -112l-19 31l182 131zM815 366q0 -170 -105 -273t-273 -103h-1q-166 0 -272 103.5t-106 272.5t105.5 271.5t272.5 102.5h1q168 0 273 -102t105 -272zM437 39q141 0 232 88t91 238t-91 238t-232 88q-140 0 -232 -88t-92 -238q0 -149 92 -237.5t232 -88.5z
" />
    <glyph glyph-name="Ocircumflex" unicode="&#xd4;" horiz-adv-x="873" 
d="M435 875l-152 -76l-17 30l169 103l171 -103l-16 -30zM815 366q0 -170 -105 -273t-273 -103h-1q-166 0 -272 103.5t-106 272.5t105.5 271.5t272.5 102.5h1q168 0 273 -102t105 -272zM437 39q141 0 232 88t91 238t-91 238t-232 88q-140 0 -232 -88t-92 -238
q0 -149 92 -237.5t232 -88.5z" />
    <glyph glyph-name="Otilde" unicode="&#xd5;" horiz-adv-x="873" 
d="M370 883q-42 0 -55 -42l-39 10q12 78 87 78q29 0 75 -25.5t66 -25.5q22 0 35 9t21 33l39 -8q-6 -39 -30 -59.5t-62 -19.5q-33 0 -75.5 25t-61.5 25zM815 366q0 -170 -105 -273t-273 -103h-1q-166 0 -272 103.5t-106 272.5t105.5 271.5t272.5 102.5h1q168 0 273 -102
t105 -272zM437 39q141 0 232 88t91 238t-91 238t-232 88q-140 0 -232 -88t-92 -238q0 -149 92 -237.5t232 -88.5z" />
    <glyph glyph-name="Odieresis" unicode="&#xd6;" horiz-adv-x="873" 
d="M352 825q-17 0 -30 13t-13 31q0 17 13 29.5t30 12.5q18 0 30.5 -12.5t12.5 -29.5q0 -18 -12.5 -31t-30.5 -13zM520 825q-17 0 -30 13t-13 31q0 17 13 29.5t30 12.5q18 0 30.5 -12.5t12.5 -29.5q0 -18 -12.5 -31t-30.5 -13zM815 366q0 -170 -105 -273t-273 -103h-1
q-166 0 -272 103.5t-106 272.5t105.5 271.5t272.5 102.5h1q168 0 273 -102t105 -272zM437 39q141 0 232 88t91 238t-91 238t-232 88q-140 0 -232 -88t-92 -238q0 -149 92 -237.5t232 -88.5z" />
    <glyph glyph-name="multiply" unicode="&#xd7;" horiz-adv-x="477" 
d="M400 404l-131 -131l131 -132l-30 -30l-131 131l-131 -131l-31 30l131 132l-131 131l31 30l131 -131l130 131z" />
    <glyph glyph-name="Oslash" unicode="&#xd8;" horiz-adv-x="873" 
d="M815 366q0 -170 -105 -273t-273 -103h-1q-133 0 -229 68l-59 -73l-38 27l61 75q-113 105 -113 279q0 169 105.5 271.5t272.5 102.5h1q123 0 214 -57l53 66l39 -26l-54 -67q126 -104 126 -290zM113 365q0 -148 91 -237l414 515q-79 48 -181 48q-140 0 -232 -88t-92 -238z
M437 39q141 0 232 88t91 238q0 160 -104 250l-417 -517q85 -59 198 -59z" />
    <glyph glyph-name="Ugrave" unicode="&#xd9;" horiz-adv-x="877" 
d="M545 821l-17 -29l-195 109l28 50zM839 730v-44h-103v-383q0 -158 -79 -235.5t-216 -77.5t-216.5 77.5t-79.5 235.5v383h-109v44h267v-44h-103v-383q0 -138 65 -200t176 -62q240 0 240 262v383h-109v44h267z" />
    <glyph glyph-name="Uacute" unicode="&#xda;" horiz-adv-x="877" 
d="M584 898l-194 -112l-19 31l182 131zM839 730v-44h-103v-383q0 -158 -79 -235.5t-216 -77.5t-216.5 77.5t-79.5 235.5v383h-109v44h267v-44h-103v-383q0 -138 65 -200t176 -62q240 0 240 262v383h-109v44h267z" />
    <glyph glyph-name="Ucircumflex" unicode="&#xdb;" horiz-adv-x="877" 
d="M440 875l-152 -76l-17 30l169 103l171 -103l-16 -30zM839 730v-44h-103v-383q0 -158 -79 -235.5t-216 -77.5t-216.5 77.5t-79.5 235.5v383h-109v44h267v-44h-103v-383q0 -138 65 -200t176 -62q240 0 240 262v383h-109v44h267z" />
    <glyph glyph-name="Udieresis" unicode="&#xdc;" horiz-adv-x="877" 
d="M357 825q-17 0 -30 13t-13 31q0 17 13 29.5t30 12.5q18 0 30.5 -12.5t12.5 -29.5q0 -18 -12.5 -31t-30.5 -13zM525 825q-17 0 -30 13t-13 31q0 17 13 29.5t30 12.5q18 0 30.5 -12.5t12.5 -29.5q0 -18 -12.5 -31t-30.5 -13zM839 730v-44h-103v-383q0 -158 -79 -235.5
t-216 -77.5t-216.5 77.5t-79.5 235.5v383h-109v44h267v-44h-103v-383q0 -138 65 -200t176 -62q240 0 240 262v383h-109v44h267z" />
    <glyph glyph-name="Yacute" unicode="&#xdd;" horiz-adv-x="752" 
d="M527 898l-194 -112l-19 31l182 131zM640 686l-231 -404v-238h113v-44h-282v44h114v238l-255 404h-94v44h249v-44h-94l223 -363l202 363h-102v44h262v-44h-105z" />
    <glyph glyph-name="Thorn" unicode="&#xde;" horiz-adv-x="707" 
d="M397 594q124 0 197.5 -60t73.5 -169t-73.5 -169t-197.5 -60h-182v-92h131v-44h-297v44h111v642h-109v44h295v-44h-131v-92h182zM397 182q100 0 157.5 47t57.5 136t-57.5 136t-157.5 47h-182v-366h182z" />
    <glyph glyph-name="germandbls" unicode="&#xdf;" horiz-adv-x="690" 
d="M428 434q0 -32 16 -55.5t40 -37t52 -31t52 -35.5t40 -51.5t16 -78.5q0 -69 -50 -112t-126 -43q-78 0 -125 36t-53 91q-3 20 6.5 32t25.5 12q14 0 23 -8.5t9 -21.5q0 -17 -12 -24q25 -73 127 -73q51 0 86.5 31t35.5 80q0 45 -22 76t-53 49t-62.5 36.5t-53.5 50.5t-22 77
q0 54 34 89t91 47q-2 68 -41 112t-112 44q-66 0 -109 -38.5t-43 -101.5v-586h-155v44h103v430h-112v46h112v66q0 84 57 135t147 51q96 1 150 -56t54 -141v-41q-56 -1 -91 -28t-35 -72z" />
    <glyph glyph-name="agrave" unicode="&#xe0;" horiz-adv-x="681" 
d="M431 618l-17 -30l-196 107l27 50zM560 44h89v-44h-138v85q-69 -95 -202 -95q-117 0 -187 74.5t-70 197.5q0 121 69.5 194.5t185.5 73.5q133 0 201 -98v88h52v-476zM311 37q69 0 120.5 30t74.5 84v202q-21 62 -72 96t-121 34q-95 0 -151.5 -61t-56.5 -161q0 -102 56 -163
t150 -61z" />
    <glyph glyph-name="aacute" unicode="&#xe1;" horiz-adv-x="681" 
d="M456 695l-197 -106l-18 31l186 126zM560 44h89v-44h-138v85q-69 -95 -202 -95q-117 0 -187 74.5t-70 197.5q0 121 69.5 194.5t185.5 73.5q133 0 201 -98v88h52v-476zM311 37q69 0 120.5 30t74.5 84v202q-21 62 -72 96t-121 34q-95 0 -151.5 -61t-56.5 -161
q0 -102 56 -163t150 -61z" />
    <glyph glyph-name="acircumflex" unicode="&#xe2;" horiz-adv-x="681" 
d="M324 684l-152 -76l-17 30l169 103l171 -103l-16 -30zM560 44h89v-44h-138v85q-69 -95 -202 -95q-117 0 -187 74.5t-70 197.5q0 121 69.5 194.5t185.5 73.5q133 0 201 -98v88h52v-476zM311 37q69 0 120.5 30t74.5 84v202q-21 62 -72 96t-121 34q-95 0 -151.5 -61
t-56.5 -161q0 -102 56 -163t150 -61z" />
    <glyph glyph-name="atilde" unicode="&#xe3;" horiz-adv-x="681" 
d="M252 692q-42 0 -55 -42l-39 10q12 78 87 78q29 0 75 -25.5t66 -25.5q22 0 35 9t21 33l39 -8q-6 -39 -30 -59.5t-62 -19.5q-33 0 -75.5 25t-61.5 25zM560 44h89v-44h-138v85q-69 -95 -202 -95q-117 0 -187 74.5t-70 197.5q0 121 69.5 194.5t185.5 73.5q133 0 201 -98v88
h52v-476zM311 37q69 0 120.5 30t74.5 84v202q-21 62 -72 96t-121 34q-95 0 -151.5 -61t-56.5 -161q0 -102 56 -163t150 -61z" />
    <glyph glyph-name="adieresis" unicode="&#xe4;" horiz-adv-x="681" 
d="M240 645q-17 0 -30 13t-13 31q0 17 13 29.5t30 12.5q18 0 30.5 -12.5t12.5 -29.5q0 -18 -12.5 -31t-30.5 -13zM408 645q-17 0 -30 13t-13 31q0 17 13 29.5t30 12.5q18 0 30.5 -12.5t12.5 -29.5q0 -18 -12.5 -31t-30.5 -13zM560 44h89v-44h-138v85q-69 -95 -202 -95
q-117 0 -187 74.5t-70 197.5q0 121 69.5 194.5t185.5 73.5q133 0 201 -98v88h52v-476zM311 37q69 0 120.5 30t74.5 84v202q-21 62 -72 96t-121 34q-95 0 -151.5 -61t-56.5 -161q0 -102 56 -163t150 -61z" />
    <glyph glyph-name="aring" unicode="&#xe5;" horiz-adv-x="681" 
d="M324 592q-46 0 -75 27.5t-29 70.5t29 70.5t75 27.5t75 -27.5t29 -70.5t-29 -70.5t-75 -27.5zM324 750q-26 0 -44 -17t-18 -43t18 -43t44 -17t44 17t18 43t-18 43t-44 17zM560 44h89v-44h-138v85q-69 -95 -202 -95q-117 0 -187 74.5t-70 197.5q0 121 69.5 194.5
t185.5 73.5q133 0 201 -98v88h52v-476zM311 37q69 0 120.5 30t74.5 84v202q-21 62 -72 96t-121 34q-95 0 -151.5 -61t-56.5 -161q0 -102 56 -163t150 -61z" />
    <glyph glyph-name="ae" unicode="&#xe6;" horiz-adv-x="975" 
d="M697 530q48 0 92 -19t77 -54t50 -88.5t10 -116.5l-6 -6h-45l-374 1q4 -96 56.5 -153t135.5 -57q122 0 166 89h51q-23 -62 -81 -99t-136 -37q-76 0 -132 36.5t-86 101.5q-26 -66 -85 -102t-143 -36q-91 0 -143.5 40t-52.5 109q0 74 56 112.5t160 38.5h181v5
q0 85 -46.5 136.5t-129.5 51.5q-75 0 -111.5 -31.5t-38.5 -59.5q15 -4 14 -22q-2 -27 -30 -27q-15 0 -23.5 10t-9.5 22q-6 57 45.5 106t153.5 49q77 0 131 -34.5t78 -94.5q32 60 89 94.5t127 34.5zM697 484q-76 0 -130.5 -53.5t-63.5 -139.5h374q-2 90 -55 141.5t-125 51.5z
M258 37q77 0 127.5 37.5t62.5 109.5v61h-184q-81 0 -120 -24t-39 -79q0 -50 40.5 -77.5t112.5 -27.5z" />
    <glyph glyph-name="ccedilla" unicode="&#xe7;" horiz-adv-x="584" 
d="M536 151q-22 -72 -78 -115.5t-139 -45.5v-37q43 0 69.5 -21t26.5 -61q0 -41 -31 -66t-78 -25q-60 0 -95 33l18 27q34 -24 74 -24q30 0 49 14.5t19 38.5q0 50 -66 50h-33l3 73q-101 13 -163 86.5t-62 183.5q0 119 73 193.5t191 74.5q109 0 168.5 -61t51.5 -130
q-4 -35 -35 -35q-14 0 -23.5 9t-9.5 22q0 23 19 29q0 39 -44.5 79t-128.5 40q-91 0 -150 -61.5t-59 -160.5q0 -101 58.5 -162.5t150.5 -61.5q134 0 174 114h50z" />
    <glyph glyph-name="egrave" unicode="&#xe8;" horiz-adv-x="589" 
d="M402 618l-17 -30l-196 107l27 50zM305 530q109 0 178.5 -76.5t55.5 -203.5l-5 -6h-47l-383 1q5 -95 59.5 -152t142.5 -57q129 0 169 91h53q-23 -65 -81.5 -101t-140.5 -36q-116 0 -185.5 75t-69.5 197q0 118 71.5 193t182.5 75zM305 484q-78 0 -134 -53.5t-66 -140.5
l385 -1q-1 90 -53.5 142.5t-131.5 52.5z" />
    <glyph glyph-name="eacute" unicode="&#xe9;" horiz-adv-x="589" 
d="M427 695l-197 -106l-18 31l186 126zM305 530q109 0 178.5 -76.5t55.5 -203.5l-5 -6h-47l-383 1q5 -95 59.5 -152t142.5 -57q129 0 169 91h53q-23 -65 -81.5 -101t-140.5 -36q-116 0 -185.5 75t-69.5 197q0 118 71.5 193t182.5 75zM305 484q-78 0 -134 -53.5t-66 -140.5
l385 -1q-1 90 -53.5 142.5t-131.5 52.5z" />
    <glyph glyph-name="ecircumflex" unicode="&#xea;" horiz-adv-x="589" 
d="M295 684l-152 -76l-17 30l169 103l171 -103l-16 -30zM305 530q109 0 178.5 -76.5t55.5 -203.5l-5 -6h-47l-383 1q5 -95 59.5 -152t142.5 -57q129 0 169 91h53q-23 -65 -81.5 -101t-140.5 -36q-116 0 -185.5 75t-69.5 197q0 118 71.5 193t182.5 75zM305 484
q-78 0 -134 -53.5t-66 -140.5l385 -1q-1 90 -53.5 142.5t-131.5 52.5z" />
    <glyph glyph-name="edieresis" unicode="&#xeb;" horiz-adv-x="589" 
d="M211 645q-17 0 -30 13t-13 31q0 17 13 29.5t30 12.5q18 0 30.5 -12.5t12.5 -29.5q0 -18 -12.5 -31t-30.5 -13zM379 645q-17 0 -30 13t-13 31q0 17 13 29.5t30 12.5q18 0 30.5 -12.5t12.5 -29.5q0 -18 -12.5 -31t-30.5 -13zM305 530q109 0 178.5 -76.5t55.5 -203.5l-5 -6
h-47l-383 1q5 -95 59.5 -152t142.5 -57q129 0 169 91h53q-23 -65 -81.5 -101t-140.5 -36q-116 0 -185.5 75t-69.5 197q0 118 71.5 193t182.5 75zM305 484q-78 0 -134 -53.5t-66 -140.5l385 -1q-1 90 -53.5 142.5t-131.5 52.5z" />
    <glyph glyph-name="igrave" unicode="&#xec;" horiz-adv-x="328" 
d="M270 618l-17 -30l-194 107l27 50zM199 44h103v-44h-266v44h111v432h-109v44h161v-476z" />
    <glyph glyph-name="iacute" unicode="&#xed;" horiz-adv-x="328" 
d="M289 695l-187 -106l-17 31l176 126zM199 44h103v-44h-266v44h111v432h-109v44h161v-476z" />
    <glyph glyph-name="icircumflex" unicode="&#xee;" horiz-adv-x="328" 
d="M164 741l158 -103l-15 -30l-142 76l-141 -76l-15 30zM199 520v-476h103v-44h-266v44h111v432h-109v44h161z" />
    <glyph glyph-name="idieresis" unicode="&#xef;" horiz-adv-x="328" 
d="M80 645q-17 0 -30 13t-13 31q0 17 13 29.5t30 12.5q18 0 30.5 -12.5t12.5 -29.5q0 -18 -12.5 -31t-30.5 -13zM248 645q-17 0 -30 13t-13 31q0 17 13 29.5t30 12.5q18 0 30.5 -12.5t12.5 -29.5q0 -18 -12.5 -31t-30.5 -13zM199 44h103v-44h-266v44h111v432h-109v44h161
v-476z" />
    <glyph glyph-name="eth" unicode="&#xf0;" horiz-adv-x="628" 
d="M425 645q132 -142 132 -359q0 -137 -69 -216.5t-183 -79.5t-183.5 74t-69.5 195q0 113 67.5 177t183.5 64q125 0 191 -97q-27 130 -115 221l-181 -83l-17 35l167 76q-92 78 -202 84l10 43q134 -9 240 -105l113 52l16 -35zM504 271v32q-50 151 -194 151q-95 0 -150 -52
t-55 -144q0 -100 55 -160.5t145 -60.5q89 0 144 63t55 171z" />
    <glyph glyph-name="ntilde" unicode="&#xf1;" horiz-adv-x="734" 
d="M309 692q-41 0 -55 -42l-39 10q12 78 87 78q30 0 75 -25.5t66 -25.5q22 0 35 9t21 33l39 -8q-6 -39 -30 -59.5t-62 -19.5q-33 0 -75.5 25t-61.5 25zM616 44h104v-44h-266v44h110v245q0 93 -47.5 143.5t-127.5 50.5q-67 0 -118.5 -37.5t-71.5 -98.5v-303h103v-44h-266v44
h111v432h-109v44h155v-99q66 109 203 109q101 0 160.5 -62t59.5 -170v-254z" />
    <glyph glyph-name="ograve" unicode="&#xf2;" horiz-adv-x="635" 
d="M424 618l-17 -30l-196 107l27 50zM584 262q0 -121 -73 -196.5t-193 -75.5h-1q-120 0 -193 75.5t-73 196.5q0 119 73 193.5t193 74.5h1q119 0 192.5 -74.5t73.5 -193.5zM317 37q95 0 154 61.5t59 162.5q0 100 -59.5 161t-153.5 61t-153.5 -61t-59.5 -161q0 -101 59 -162.5
t154 -61.5z" />
    <glyph glyph-name="oacute" unicode="&#xf3;" horiz-adv-x="635" 
d="M449 695l-197 -106l-18 31l186 126zM584 262q0 -121 -73 -196.5t-193 -75.5h-1q-120 0 -193 75.5t-73 196.5q0 119 73 193.5t193 74.5h1q119 0 192.5 -74.5t73.5 -193.5zM317 37q95 0 154 61.5t59 162.5q0 100 -59.5 161t-153.5 61t-153.5 -61t-59.5 -161
q0 -101 59 -162.5t154 -61.5z" />
    <glyph glyph-name="ocircumflex" unicode="&#xf4;" horiz-adv-x="635" 
d="M317 684l-152 -76l-17 30l169 103l171 -103l-16 -30zM584 262q0 -121 -73 -196.5t-193 -75.5h-1q-120 0 -193 75.5t-73 196.5q0 119 73 193.5t193 74.5h1q119 0 192.5 -74.5t73.5 -193.5zM317 37q95 0 154 61.5t59 162.5q0 100 -59.5 161t-153.5 61t-153.5 -61
t-59.5 -161q0 -101 59 -162.5t154 -61.5z" />
    <glyph glyph-name="otilde" unicode="&#xf5;" horiz-adv-x="635" 
d="M245 692q-41 0 -55 -42l-39 10q12 78 87 78q30 0 75 -25.5t66 -25.5q22 0 35 9t21 33l39 -8q-6 -39 -30 -59.5t-62 -19.5q-33 0 -75.5 25t-61.5 25zM584 262q0 -121 -73 -196.5t-193 -75.5h-1q-120 0 -193 75.5t-73 196.5q0 119 73 193.5t193 74.5h1q119 0 192.5 -74.5
t73.5 -193.5zM317 37q95 0 154 61.5t59 162.5q0 100 -59.5 161t-153.5 61t-153.5 -61t-59.5 -161q0 -101 59 -162.5t154 -61.5z" />
    <glyph glyph-name="odieresis" unicode="&#xf6;" horiz-adv-x="635" 
d="M233 645q-17 0 -30 13t-13 31q0 17 13 29.5t30 12.5q18 0 30.5 -12.5t12.5 -29.5q0 -18 -12.5 -31t-30.5 -13zM401 645q-17 0 -30 13t-13 31q0 17 13 29.5t30 12.5q18 0 30.5 -12.5t12.5 -29.5q0 -18 -12.5 -31t-30.5 -13zM584 262q0 -121 -73 -196.5t-193 -75.5h-1
q-120 0 -193 75.5t-73 196.5q0 119 73 193.5t193 74.5h1q119 0 192.5 -74.5t73.5 -193.5zM317 37q95 0 154 61.5t59 162.5q0 100 -59.5 161t-153.5 61t-153.5 -61t-59.5 -161q0 -101 59 -162.5t154 -61.5z" />
    <glyph glyph-name="divide" unicode="&#xf7;" horiz-adv-x="579" 
d="M289 382q-17 0 -29.5 12.5t-12.5 31.5q0 17 12.5 29t29.5 12q18 0 31 -12t13 -29q0 -19 -13 -31.5t-31 -12.5zM503 277v-44h-428v44h428zM290 34q-18 0 -30.5 13t-12.5 31q0 17 12.5 29.5t30.5 12.5q17 0 30 -12.5t13 -29.5q0 -18 -13 -31t-30 -13z" />
    <glyph glyph-name="oslash" unicode="&#xf8;" horiz-adv-x="635" 
d="M584 262q0 -121 -73 -196.5t-193 -75.5h-1q-114 0 -186 69l-62 -60l-23 23l63 61q-58 72 -58 179q0 119 73 193.5t193 74.5h1q114 0 185 -68l53 51l24 -23l-54 -52q58 -72 58 -176zM104 261q0 -84 42 -142l320 307q-59 57 -149 57q-94 0 -153.5 -61t-59.5 -161zM317 37
q95 0 154 61.5t59 162.5q0 84 -42 140l-320 -307q59 -57 149 -57z" />
    <glyph glyph-name="ugrave" unicode="&#xf9;" horiz-adv-x="698" 
d="M434 618l-17 -30l-196 107l27 50zM566 44h109v-44h-155v99q-65 -109 -197 -109q-89 0 -147.5 59.5t-58.5 149.5v277h-103v44h155v-320q0 -70 46 -116t113 -47q64 -1 115 37t71 99v303h-103v44h155v-476z" />
    <glyph glyph-name="uacute" unicode="&#xfa;" horiz-adv-x="698" 
d="M459 695l-197 -106l-18 31l186 126zM566 44h109v-44h-155v99q-65 -109 -197 -109q-89 0 -147.5 59.5t-58.5 149.5v277h-103v44h155v-320q0 -70 46 -116t113 -47q64 -1 115 37t71 99v303h-103v44h155v-476z" />
    <glyph glyph-name="ucircumflex" unicode="&#xfb;" horiz-adv-x="698" 
d="M327 684l-152 -76l-17 30l169 103l171 -103l-16 -30zM566 44h109v-44h-155v99q-65 -109 -197 -109q-89 0 -147.5 59.5t-58.5 149.5v277h-103v44h155v-320q0 -70 46 -116t113 -47q64 -1 115 37t71 99v303h-103v44h155v-476z" />
    <glyph glyph-name="udieresis" unicode="&#xfc;" horiz-adv-x="698" 
d="M243 645q-17 0 -30 13t-13 31q0 17 13 29.5t30 12.5q18 0 30.5 -12.5t12.5 -29.5q0 -18 -12.5 -31t-30.5 -13zM411 645q-17 0 -30 13t-13 31q0 17 13 29.5t30 12.5q18 0 30.5 -12.5t12.5 -29.5q0 -18 -12.5 -31t-30.5 -13zM566 44h109v-44h-155v99q-65 -109 -197 -109
q-89 0 -147.5 59.5t-58.5 149.5v277h-103v44h155v-320q0 -70 46 -116t113 -47q64 -1 115 37t71 99v303h-103v44h155v-476z" />
    <glyph glyph-name="yacute" unicode="&#xfd;" horiz-adv-x="680" 
d="M474 695l-197 -106l-18 31l186 126zM677 520v-44h-100l-249 -579q-45 -105 -132 -105q-35 0 -58 15.5t-27 44.5q-2 18 5.5 28.5t22.5 11.5q12 1 20.5 -6t10.5 -18q2 -15 -8 -23q7 -11 38 -11q51 0 80 64l43 102h-14l-207 476h-97l-1 44h241v-44h-85l182 -434l182 434h-92
v44h245z" />
    <glyph glyph-name="thorn" unicode="&#xfe;" horiz-adv-x="659" 
d="M352 530q118 0 186.5 -73t68.5 -195q0 -125 -69 -198.5t-188 -73.5q-134 0 -204 98v-246h123v-44h-284v44h111v899h50v-317q66 106 206 106zM95 741v-44h-108v44h108zM348 37q94 0 150 60.5t56 163.5q0 102 -55.5 162t-152.5 60q-72 0 -123.5 -36t-71.5 -100v-191
q22 -56 74 -87.5t123 -31.5z" />
    <glyph glyph-name="ydieresis" unicode="&#xff;" horiz-adv-x="680" 
d="M258 645q-17 0 -30 13t-13 31q0 17 13 29.5t30 12.5q18 0 30.5 -12.5t12.5 -29.5q0 -18 -12.5 -31t-30.5 -13zM426 645q-17 0 -30 13t-13 31q0 17 13 29.5t30 12.5q18 0 30.5 -12.5t12.5 -29.5q0 -18 -12.5 -31t-30.5 -13zM677 520v-44h-100l-249 -579
q-45 -105 -132 -105q-35 0 -58 15.5t-27 44.5q-2 18 5.5 28.5t22.5 11.5q12 1 20.5 -6t10.5 -18q2 -15 -8 -23q7 -11 38 -11q51 0 80 64l43 102h-14l-207 476h-97l-1 44h241v-44h-85l182 -434l182 434h-92v44h245z" />
    <glyph glyph-name="Amacron" unicode="&#x100;" horiz-adv-x="828" 
d="M565 863v-44h-306v44h306zM734 44h105v-44h-273v44h111l-64 162h-396l-69 -162h110v-44h-258v44h93l276 640h-160v46h251zM237 251h358l-170 433h-2z" />
    <glyph glyph-name="amacron" unicode="&#x101;" horiz-adv-x="681" 
d="M477 687v-44h-306v44h306zM560 44h89v-44h-138v85q-69 -95 -202 -95q-117 0 -187 74.5t-70 197.5q0 121 69.5 194.5t185.5 73.5q133 0 201 -98v88h52v-476zM311 37q69 0 120.5 30t74.5 84v202q-21 62 -72 96t-121 34q-95 0 -151.5 -61t-56.5 -161q0 -102 56 -163t150 -61
z" />
    <glyph glyph-name="Abreve" unicode="&#x102;" horiz-adv-x="828" 
d="M411 798q-67 0 -115 33t-52 91l41 4q7 -38 42.5 -62t83.5 -24q47 0 83.5 23.5t43.5 62.5l40 -4q-5 -56 -52 -90t-115 -34zM734 44h105v-44h-273v44h111l-64 162h-396l-69 -162h110v-44h-258v44h93l276 640h-160v46h251zM237 251h358l-170 433h-2z" />
    <glyph glyph-name="abreve" unicode="&#x103;" horiz-adv-x="681" 
d="M323 595q-67 0 -115 33t-52 91l41 4q7 -38 42.5 -62t83.5 -24q47 0 83.5 23.5t43.5 62.5l40 -4q-5 -56 -52 -90t-115 -34zM560 44h89v-44h-138v85q-69 -95 -202 -95q-117 0 -187 74.5t-70 197.5q0 121 69.5 194.5t185.5 73.5q133 0 201 -98v88h52v-476zM311 37
q69 0 120.5 30t74.5 84v202q-21 62 -72 96t-121 34q-95 0 -151.5 -61t-56.5 -161q0 -102 56 -163t150 -61z" />
    <glyph glyph-name="Aogonek" unicode="&#x104;" horiz-adv-x="828" 
d="M742 0q-93 -54 -93 -127q0 -26 16 -40.5t42 -14.5q22 0 42 6v-35q-24 -8 -48 -8q-44 0 -70.5 24t-26.5 66q0 74 83 129h-121v44h111l-64 162h-396l-69 -162h110v-44h-258v44h93l276 640h-160v46h251l274 -686h105v-44h-97zM237 251h358l-170 433h-2z" />
    <glyph glyph-name="aogonek" unicode="&#x105;" horiz-adv-x="681" 
d="M560 0q-97 -53 -97 -129q0 -26 16 -40.5t42 -14.5q22 0 42 6v-35q-24 -8 -48 -8q-44 0 -70.5 24t-26.5 66q0 79 93 135v81q-69 -95 -202 -95q-117 0 -187 74.5t-70 197.5q0 121 69.5 194.5t185.5 73.5q133 0 201 -98v88h52v-476h89v-44h-89zM311 37q69 0 120.5 30
t74.5 84v202q-21 62 -72 96t-121 34q-95 0 -151.5 -61t-56.5 -161q0 -102 56 -163t150 -61z" />
    <glyph glyph-name="Cacute" unicode="&#x106;" horiz-adv-x="822" 
d="M570 898l-194 -112l-19 31l182 131zM715 232h53q-17 -112 -107.5 -177t-225.5 -65q-165 0 -271.5 103.5t-106.5 272.5t106.5 271.5t273.5 102.5q148 0 241.5 -81t86.5 -201q-5 -42 -42 -42q-17 0 -28 11.5t-11 27.5q0 29 24 35q2 82 -76 141.5t-195 59.5
q-141 0 -232.5 -88t-91.5 -238t91.5 -238t230.5 -88q111 0 186.5 49.5t93.5 143.5z" />
    <glyph glyph-name="cacute" unicode="&#x107;" horiz-adv-x="584" 
d="M416 746l29 -51l-197 -106l-18 31zM499 304q-14 0 -23.5 9t-9.5 22q0 23 19 29q0 39 -44.5 79t-128.5 40q-91 0 -150 -61.5t-59 -160.5q0 -101 58.5 -162.5t150.5 -61.5q134 0 174 114h50q-23 -74 -80.5 -117.5t-143.5 -43.5q-116 0 -189 75.5t-73 196.5q0 119 73 193.5
t191 74.5q109 0 168.5 -61t51.5 -130q-4 -35 -35 -35z" />
    <glyph glyph-name="Cdotaccent" unicode="&#x10a;" horiz-adv-x="822" 
d="M427 816q-20 0 -33.5 13.5t-13.5 33.5q0 18 14 31.5t33 13.5t32.5 -13.5t13.5 -31.5q0 -20 -13.5 -33.5t-32.5 -13.5zM715 232h53q-17 -112 -107.5 -177t-225.5 -65q-165 0 -271.5 103.5t-106.5 272.5t106.5 271.5t273.5 102.5q148 0 241.5 -81t86.5 -201q-5 -42 -42 -42
q-17 0 -28 11.5t-11 27.5q0 29 24 35q2 82 -76 141.5t-195 59.5q-141 0 -232.5 -88t-91.5 -238t91.5 -238t230.5 -88q111 0 186.5 49.5t93.5 143.5z" />
    <glyph glyph-name="cdotaccent" unicode="&#x10b;" horiz-adv-x="584" 
d="M313 655q-20 0 -33.5 13.5t-13.5 33.5q0 18 14 31.5t33 13.5t32.5 -13.5t13.5 -31.5q0 -20 -13.5 -33.5t-32.5 -13.5zM499 304q-14 0 -23.5 9t-9.5 22q0 23 19 29q0 39 -44.5 79t-128.5 40q-91 0 -150 -61.5t-59 -160.5q0 -101 58.5 -162.5t150.5 -61.5q134 0 174 114h50
q-23 -74 -80.5 -117.5t-143.5 -43.5q-116 0 -189 75.5t-73 196.5q0 119 73 193.5t191 74.5q109 0 168.5 -61t51.5 -130q-4 -35 -35 -35z" />
    <glyph glyph-name="Ccaron" unicode="&#x10c;" horiz-adv-x="822" 
d="M609 917l-181 -125l-181 125l18 30l162 -97l163 98zM715 232h53q-17 -112 -107.5 -177t-225.5 -65q-165 0 -271.5 103.5t-106.5 272.5t106.5 271.5t273.5 102.5q148 0 241.5 -81t86.5 -201q-5 -42 -42 -42q-17 0 -28 11.5t-11 27.5q0 29 24 35q2 82 -76 141.5t-195 59.5
q-141 0 -232.5 -88t-91.5 -238t91.5 -238t230.5 -88q111 0 186.5 49.5t93.5 143.5z" />
    <glyph glyph-name="ccaron" unicode="&#x10d;" horiz-adv-x="584" 
d="M494 713l-181 -125l-181 125l18 30l162 -97l163 98zM486 151h50q-23 -74 -80.5 -117.5t-143.5 -43.5q-116 0 -189 75.5t-73 196.5q0 119 73 193.5t191 74.5q109 0 168.5 -61t51.5 -130q-4 -35 -35 -35q-14 0 -23.5 9t-9.5 22q0 23 19 29q0 39 -44.5 79t-128.5 40
q-91 0 -150 -61.5t-59 -160.5q0 -101 58.5 -162.5t150.5 -61.5q134 0 174 114z" />
    <glyph glyph-name="Dcaron" unicode="&#x10e;" horiz-adv-x="848" 
d="M605 917l-181 -125l-181 125l18 30l162 -97l163 98zM421 730q167 0 267.5 -95.5t100.5 -268.5q0 -174 -100.5 -270t-267.5 -96h-372v44h111v642h-109v44h370zM421 46q139 0 226 82.5t87 236.5t-87 236.5t-226 82.5h-206v-638h206z" />
    <glyph glyph-name="dcaron" unicode="&#x10f;" horiz-adv-x="674" 
d="M643 821h53l-24 -210h-45zM555 780v-736h87v-44h-137v81q-70 -91 -200 -91q-116 0 -184.5 74t-68.5 198q0 121 68.5 194.5t182.5 73.5q135 0 199 -89v295h-117v44h170zM307 37q140 0 193 102v229q-50 115 -191 115q-94 0 -149 -60.5t-55 -161.5q0 -102 55.5 -163
t146.5 -61z" />
    <glyph glyph-name="Dcroat" unicode="&#x110;" horiz-adv-x="848" 
d="M421 730q167 0 267.5 -95.5t100.5 -268.5q0 -174 -100.5 -270t-267.5 -96h-372v44h111v303h-99v41h99v298h-109v44h370zM421 46q139 0 226 82.5t87 236.5t-87 236.5t-226 82.5h-206v-296h176v-41h-176v-301h206z" />
    <glyph glyph-name="dcroat" unicode="&#x111;" horiz-adv-x="674" 
d="M686 602h-131v-558h87v-44h-137v81q-70 -91 -200 -91q-116 0 -184.5 74t-68.5 198q0 121 68.5 194.5t182.5 73.5q135 0 199 -89v161h-146v41h146v93h-117v44h170v-137h131v-41zM307 37q140 0 193 102v229q-50 115 -191 115q-94 0 -149 -60.5t-55 -161.5q0 -102 55.5 -163
t146.5 -61z" />
    <glyph glyph-name="Emacron" unicode="&#x112;" horiz-adv-x="719" 
d="M549 863v-44h-306v44h306zM605 189h49v-189h-605v44h111v642h-109v44h602v-189h-49v143h-389v-299h317v-46h-317v-293h390v143z" />
    <glyph glyph-name="emacron" unicode="&#x113;" horiz-adv-x="589" 
d="M448 687v-44h-306v44h306zM305 530q109 0 178.5 -76.5t55.5 -203.5l-5 -6h-47l-383 1q5 -95 59.5 -152t142.5 -57q129 0 169 91h53q-23 -65 -81.5 -101t-140.5 -36q-116 0 -185.5 75t-69.5 197q0 118 71.5 193t182.5 75zM305 484q-78 0 -134 -53.5t-66 -140.5l385 -1
q-1 90 -53.5 142.5t-131.5 52.5z" />
    <glyph glyph-name="Edotaccent" unicode="&#x116;" horiz-adv-x="719" 
d="M396 816q-20 0 -33.5 13.5t-13.5 33.5q0 18 14 31.5t33 13.5t32.5 -13.5t13.5 -31.5q0 -20 -13.5 -33.5t-32.5 -13.5zM605 189h49v-189h-605v44h111v642h-109v44h602v-189h-49v143h-389v-299h317v-46h-317v-293h390v143z" />
    <glyph glyph-name="edotaccent" unicode="&#x117;" horiz-adv-x="589" 
d="M295 655q-20 0 -33.5 13.5t-13.5 33.5q0 18 14 31.5t33 13.5t32.5 -13.5t13.5 -31.5q0 -20 -13.5 -33.5t-32.5 -13.5zM305 530q109 0 178.5 -76.5t55.5 -203.5l-5 -6h-47l-383 1q5 -95 59.5 -152t142.5 -57q129 0 169 91h53q-23 -65 -81.5 -101t-140.5 -36
q-116 0 -185.5 75t-69.5 197q0 118 71.5 193t182.5 75zM305 484q-78 0 -134 -53.5t-66 -140.5l385 -1q-1 90 -53.5 142.5t-131.5 52.5z" />
    <glyph glyph-name="Eogonek" unicode="&#x118;" horiz-adv-x="719" 
d="M615 -184q22 0 42 6v-35q-24 -8 -48 -8q-44 0 -70.5 24t-26.5 66q0 75 86 131h-549v44h111v642h-109v44h602v-189h-49v143h-389v-299h317v-46h-317v-293h390v143h49v-189q-97 -53 -97 -129q0 -26 16 -40.5t42 -14.5z" />
    <glyph glyph-name="eogonek" unicode="&#x119;" horiz-adv-x="589" 
d="M305 530q109 0 178.5 -76.5t55.5 -203.5l-5 -6h-47l-383 1q5 -95 59.5 -152t142.5 -57q129 0 169 91h53q-39 -112 -173 -133q-84 -51 -84 -122q0 -26 16 -40.5t42 -14.5q22 0 42 6v-35q-24 -8 -48 -8q-44 0 -70.5 24t-26.5 66q0 70 70 120q-112 4 -178.5 78.5
t-66.5 193.5q0 118 71.5 193t182.5 75zM305 484q-78 0 -134 -53.5t-66 -140.5l385 -1q-1 90 -53.5 142.5t-131.5 52.5z" />
    <glyph glyph-name="Ecaron" unicode="&#x11a;" horiz-adv-x="719" 
d="M578 917l-181 -125l-181 125l18 30l162 -97l163 98zM605 189h49v-189h-605v44h111v642h-109v44h602v-189h-49v143h-389v-299h317v-46h-317v-293h390v143z" />
    <glyph glyph-name="ecaron" unicode="&#x11b;" horiz-adv-x="589" 
d="M476 713l-181 -125l-181 125l18 30l162 -97l163 98zM305 530q109 0 178.5 -76.5t55.5 -203.5l-5 -6h-47l-383 1q5 -95 59.5 -152t142.5 -57q129 0 169 91h53q-23 -65 -81.5 -101t-140.5 -36q-116 0 -185.5 75t-69.5 197q0 118 71.5 193t182.5 75zM305 484
q-78 0 -134 -53.5t-66 -140.5l385 -1q-1 90 -53.5 142.5t-131.5 52.5z" />
    <glyph glyph-name="Gbreve" unicode="&#x11e;" horiz-adv-x="840" 
d="M442 798q-67 0 -115 33t-52 91l41 4q7 -38 42.5 -62t83.5 -24q47 0 83.5 23.5t43.5 62.5l40 -4q-5 -56 -52 -90t-115 -34zM771 318v-318h-39l-9 149q-43 -75 -122 -117t-175 -42q-159 0 -263.5 103.5t-104.5 272.5t106 271.5t273 102.5q144 0 238.5 -74t84.5 -186
q-4 -42 -43 -42q-16 0 -27 11t-11 26q0 29 25 36q3 68 -75.5 124t-191.5 56q-141 0 -232 -88t-91 -238q0 -149 89.5 -237.5t222.5 -88.5q99 0 180 50t115 152v31h-275v46h325z" />
    <glyph glyph-name="gbreve" unicode="&#x11f;" horiz-adv-x="664" 
d="M328 595q-67 0 -115 33t-52 91l41 4q7 -38 42.5 -62t83.5 -24q47 0 83.5 23.5t43.5 62.5l40 -4q-5 -56 -52 -90t-115 -34zM512 520h50v-498q0 -113 -66 -172t-184 -59q-99 0 -150 35.5t-61 77.5q-4 22 5.5 34.5t27.5 12.5q15 0 23.5 -9.5t8.5 -23.5q0 -13 -10 -20
q13 -22 52.5 -41t103.5 -19q200 0 200 184v76q-70 -98 -204 -98q-114 0 -184.5 71t-70.5 191q0 122 68 195t185 73q140 0 206 -106v96zM311 47q70 0 122 31.5t74 87.5v181q-21 64 -72.5 100t-122.5 36q-96 0 -151 -60t-55 -162q0 -101 55 -157.5t150 -56.5z" />
    <glyph glyph-name="Gdotaccent" unicode="&#x120;" horiz-adv-x="840" 
d="M443 816q-20 0 -33.5 13.5t-13.5 33.5q0 18 14 31.5t33 13.5t32.5 -13.5t13.5 -31.5q0 -20 -13.5 -33.5t-32.5 -13.5zM771 318v-318h-39l-9 149q-43 -75 -122 -117t-175 -42q-159 0 -263.5 103.5t-104.5 272.5t106 271.5t273 102.5q144 0 238.5 -74t84.5 -186
q-4 -42 -43 -42q-16 0 -27 11t-11 26q0 29 25 36q3 68 -75.5 124t-191.5 56q-141 0 -232 -88t-91 -238q0 -149 89.5 -237.5t222.5 -88.5q99 0 180 50t115 152v31h-275v46h325z" />
    <glyph glyph-name="gdotaccent" unicode="&#x121;" horiz-adv-x="664" 
d="M329 655q-20 0 -33.5 13.5t-13.5 33.5q0 18 14 31.5t33 13.5t32.5 -13.5t13.5 -31.5q0 -20 -13.5 -33.5t-32.5 -13.5zM512 520h50v-498q0 -113 -66 -172t-184 -59q-99 0 -150 35.5t-61 77.5q-4 22 5.5 34.5t27.5 12.5q15 0 23.5 -9.5t8.5 -23.5q0 -13 -10 -20
q13 -22 52.5 -41t103.5 -19q200 0 200 184v76q-70 -98 -204 -98q-114 0 -184.5 71t-70.5 191q0 122 68 195t185 73q140 0 206 -106v96zM311 47q70 0 122 31.5t74 87.5v181q-21 64 -72.5 100t-122.5 36q-96 0 -151 -60t-55 -162q0 -101 55 -157.5t150 -56.5z" />
    <glyph glyph-name="Gcommaaccent" unicode="&#x122;" horiz-adv-x="840" 
d="M771 318v-318h-39l-9 149q-43 -75 -122 -117t-175 -42q-159 0 -263.5 103.5t-104.5 272.5t106 271.5t273 102.5q144 0 238.5 -74t84.5 -186q-4 -42 -43 -42q-16 0 -27 11t-11 26q0 29 25 36q3 68 -75.5 124t-191.5 56q-141 0 -232 -88t-91 -238q0 -149 89.5 -237.5
t222.5 -88.5q99 0 180 50t115 152v31h-275v46h325zM428 -39q40 0 50 -43q10 -45 -20 -83q-28 -32 -72 -33v29q22 0 38.5 14.5t14.5 28.5q-4 -3 -14 -3q-18 0 -31 12.5t-13 32.5q0 19 13.5 32t33.5 13z" />
    <glyph glyph-name="gcommaaccent" unicode="&#x123;" horiz-adv-x="666" 
d="M328 605q-40 0 -50 43q-10 45 20 83q27 33 72 33v-29q-22 0 -38.5 -14.5t-14.5 -28.5q4 3 14 3q18 0 31 -12.5t13 -32.5q0 -19 -13.5 -32t-33.5 -13zM512 520h50v-498q0 -113 -66 -172t-184 -59q-99 0 -150 35.5t-61 77.5q-4 22 5.5 34.5t27.5 12.5q15 0 23.5 -9.5
t8.5 -23.5q0 -13 -10 -20q13 -22 52.5 -41t103.5 -19q200 0 200 184v76q-70 -98 -204 -98q-114 0 -184.5 71t-70.5 191q0 122 68 195t185 73q140 0 206 -106v96zM311 47q70 0 122 31.5t74 87.5v181q-21 64 -72.5 100t-122.5 36q-96 0 -151 -60t-55 -162q0 -101 55 -157.5
t150 -56.5z" />
    <glyph glyph-name="Hbar" unicode="&#x126;" horiz-adv-x="935" 
d="M878 686h-104v-110h82v-43h-82v-489h104v-44h-270v44h112v299h-505v-299h103v-44h-269v44h111v489h-96v43h96v110h-109v44h267v-44h-103v-110h505v110h-109v44h267v-44zM720 390v143h-505v-143h505z" />
    <glyph glyph-name="hbar" unicode="&#x127;" horiz-adv-x="713" 
d="M591 44h112v-44h-267v44h103v245q0 89 -44.5 141.5t-120.5 52.5q-71 0 -120 -37.5t-70 -98.5v-303h103v-44h-266v44h110v561h-125v41h125v90h-108v44h155v-134h158v-41h-158v-185q63 110 200 110q98 0 155.5 -64.5t57.5 -169.5v-252z" />
    <glyph glyph-name="Itilde" unicode="&#x128;" horiz-adv-x="375" 
d="M310 920l39 -8q-6 -39 -30 -59.5t-62 -19.5q-33 0 -75.5 25t-61.5 25q-42 0 -55 -42l-39 10q12 78 87 78q29 0 75 -25.5t66 -25.5q22 0 35 9t21 33zM321 730v-44h-106v-642h106v-44h-267v44h106v642h-106v44h267z" />
    <glyph glyph-name="itilde" unicode="&#x129;" horiz-adv-x="328" 
d="M96 692q-40 0 -52 -42l-37 10q12 78 82 78q28 0 71 -25.5t63 -25.5t32.5 9t20.5 33l36 -8q-11 -81 -87 -79q-31 0 -71 25t-58 25zM199 520v-476h103v-44h-266v44h111v432h-109v44h161z" />
    <glyph glyph-name="Imacron" unicode="&#x12a;" horiz-adv-x="375" 
d="M33 863h306v-44h-306v44zM321 730v-44h-106v-642h106v-44h-267v44h106v642h-106v44h267z" />
    <glyph glyph-name="imacron" unicode="&#x12b;" horiz-adv-x="328" 
d="M301 687v-44h-275v44h275zM199 44h103v-44h-266v44h111v432h-109v44h161v-476z" />
    <glyph glyph-name="Iogonek" unicode="&#x12e;" horiz-adv-x="375" 
d="M321 686h-106v-642h106v-44h-107q-97 -53 -97 -129q0 -26 16 -40.5t42 -14.5q22 0 42 6v-35q-24 -8 -48 -8q-44 0 -70.5 24t-26.5 66q0 75 86 131h-104v44h106v642h-106v44h267v-44z" />
    <glyph glyph-name="iogonek" unicode="&#x12f;" horiz-adv-x="328" 
d="M164 655q-20 0 -33.5 13.5t-13.5 33.5q0 18 14 31.5t33 13.5t32.5 -13.5t13.5 -31.5q0 -20 -13.5 -33.5t-32.5 -13.5zM199 0q-97 -53 -97 -129q0 -26 16 -40.5t42 -14.5q22 0 42 6v-35q-24 -8 -48 -8q-44 0 -70.5 24t-26.5 66q0 75 86 131h-107v44h111v432h-109v44h161
v-476h103v-44h-103z" />
    <glyph glyph-name="Idotaccent" unicode="&#x130;" horiz-adv-x="375" 
d="M186 816q-20 0 -33.5 13.5t-13.5 33.5q0 18 14 31.5t33 13.5t32.5 -13.5t13.5 -31.5q0 -20 -13.5 -33.5t-32.5 -13.5zM321 686h-106v-642h106v-44h-267v44h106v642h-106v44h267v-44z" />
    <glyph glyph-name="dotlessi" unicode="&#x131;" horiz-adv-x="328" 
d="M199 44h103v-44h-266v44h111v432h-109v44h161v-476z" />
    <glyph glyph-name="IJ" unicode="&#x132;" horiz-adv-x="1044" 
d="M321 730v-44h-106v-642h106v-44h-267v44h106v642h-106v44h267zM933 730l-1 -476q0 -117 -71 -190.5t-193 -73.5q-129 0 -198.5 60t-67.5 160q1 19 12.5 30.5t29.5 11.5t28.5 -11t10.5 -27q0 -30 -26 -36q6 -61 60.5 -99.5t150.5 -38.5q95 0 152 59.5t57 154.5h1l1 429
h-298v47h352z" />
    <glyph glyph-name="ij" unicode="&#x133;" horiz-adv-x="625" 
d="M164 655q-20 0 -33.5 13.5t-13.5 33.5q0 18 14 31.5t33 13.5t32.5 -13.5t13.5 -31.5q0 -20 -13.5 -33.5t-32.5 -13.5zM495 747q19 0 32.5 -13.5t13.5 -31.5q0 -20 -13.5 -33.5t-32.5 -13.5q-20 0 -33.5 13.5t-13.5 33.5q0 18 14 31.5t33 13.5zM302 44v-44h-266v44h111
v432h-109v44h161v-476h103zM524 520v-557q0 -88 -30 -127.5t-95 -39.5q-39 0 -67.5 19t-33.5 55q-3 17 6 29t25 14q13 1 23 -7.5t11 -20.5q2 -17 -9 -25q10 -21 46 -21q39 0 55 26t16 92v519h-108v44h161z" />
    <glyph glyph-name="Kcommaaccent" unicode="&#x136;" horiz-adv-x="816" 
d="M707 44h108v-44h-138l-290 381l-172 -171v-166h103v-44h-269v44h111v642h-109v44h267v-44h-103v-416l413 416h-109v44h269v-44h-93l-273 -270zM439 -39q40 0 50 -43q10 -45 -20 -83q-28 -32 -72 -33v29q22 0 38.5 14.5t14.5 28.5q-4 -3 -14 -3q-18 0 -31 12.5t-13 32.5
q0 19 13.5 32t33.5 13z" />
    <glyph glyph-name="kcommaaccent" unicode="&#x137;" horiz-adv-x="669" 
d="M550 44h119v-44h-149l-211 270l-125 -122v-104h105v-44h-268v44h110v692h-108v44h161v-573l272 269h-91v44h258v-44h-104l-177 -173zM360 -39q40 0 50 -43q10 -45 -20 -83q-28 -32 -72 -33v29q22 0 38.5 14.5t14.5 28.5q-4 -3 -14 -3q-18 0 -31 12.5t-13 32.5
q0 19 13.5 32t33.5 13z" />
    <glyph glyph-name="kgreenlandic" unicode="&#x138;" horiz-adv-x="684" 
d="M565 44h119v-44h-149l-210 271l-126 -123v-104h105v-44h-268v44h111v432h-109v44h161v-315l272 271h-90v44h258v-44h-104l-178 -174z" />
    <glyph glyph-name="Lacute" unicode="&#x139;" horiz-adv-x="659" 
d="M330 898l-194 -112l-19 31l182 131zM582 196h48v-196h-581v44h111v642h-109v44h267v-44h-103v-640h367v150z" />
    <glyph glyph-name="lacute" unicode="&#x13a;" horiz-adv-x="313" 
d="M289 948l-194 -112l-19 31l182 131zM184 780v-736h103v-44h-266v44h110v692h-108v44h161z" />
    <glyph glyph-name="Lcommaaccent" unicode="&#x13b;" horiz-adv-x="659" 
d="M582 196h48v-196h-581v44h111v642h-109v44h267v-44h-103v-640h367v150zM382 -39q40 0 50 -43q10 -45 -20 -83q-28 -32 -72 -33v29q22 0 38.5 14.5t14.5 28.5q-4 -3 -14 -3q-18 0 -31 12.5t-13 32.5q0 19 13.5 32t33.5 13z" />
    <glyph glyph-name="lcommaaccent" unicode="&#x13c;" horiz-adv-x="313" 
d="M184 44h103v-44h-266v44h110v692h-108v44h161v-736zM155 -39q40 0 50 -43q10 -45 -20 -83q-28 -32 -72 -33v29q22 0 38.5 14.5t14.5 28.5q-4 -3 -14 -3q-18 0 -31 12.5t-13 32.5q0 19 13.5 32t33.5 13z" />
    <glyph glyph-name="Lcaron" unicode="&#x13d;" horiz-adv-x="659" 
d="M492 787l-24 -210h-45l16 210h53zM582 196h48v-196h-581v44h111v642h-109v44h267v-44h-103v-640h367v150z" />
    <glyph glyph-name="lcaron" unicode="&#x13e;" horiz-adv-x="313" 
d="M273 870h53l-24 -210h-45zM184 780v-736h103v-44h-266v44h110v692h-108v44h161z" />
    <glyph glyph-name="Ldot" unicode="&#x13f;" horiz-adv-x="659" 
d="M187 865q-20 0 -33.5 13.5t-13.5 33.5q0 18 14 31.5t33 13.5t32.5 -13.5t13.5 -31.5q0 -20 -13.5 -33.5t-32.5 -13.5zM582 196h48v-196h-581v44h111v642h-109v44h267v-44h-103v-640h367v150z" />
    <glyph glyph-name="ldot" unicode="&#x140;" horiz-adv-x="313" 
d="M184 780v-736h103v-44h-266v44h110v692h-108v44h161zM302 399q19 0 33 -13.5t14 -31.5q0 -20 -13.5 -33.5t-33.5 -13.5q-19 0 -32 13.5t-13 33.5q0 18 13 31.5t32 13.5z" />
    <glyph glyph-name="Lslash" unicode="&#x141;" horiz-adv-x="659" 
d="M582 196h48v-196h-581v44h111v281l-104 -60l-20 37l124 72v312h-109v44h267v-44h-103v-281l112 65l20 -38l-132 -76v-310h367v150z" />
    <glyph glyph-name="lslash" unicode="&#x142;" horiz-adv-x="313" 
d="M184 407v-363h103v-44h-266v44h110v330l-104 -65l-22 34l126 79v314h-108v44h161v-324l100 63l22 -35z" />
    <glyph glyph-name="Nacute" unicode="&#x143;" horiz-adv-x="927" 
d="M616 898l-194 -112l-19 31l182 131zM882 730v-44h-103v-686h-48l-517 640v-596h112v-44h-277v44h111v642h-109v44h158l516 -643v599h-108v44h265z" />
    <glyph glyph-name="nacute" unicode="&#x144;" horiz-adv-x="734" 
d="M513 695l-197 -106l-18 31l186 126zM616 44h104v-44h-266v44h110v245q0 93 -47.5 143.5t-127.5 50.5q-67 0 -118.5 -37.5t-71.5 -98.5v-303h103v-44h-266v44h111v432h-109v44h155v-99q66 109 203 109q101 0 160.5 -62t59.5 -170v-254z" />
    <glyph glyph-name="Ncommaaccent" unicode="&#x145;" horiz-adv-x="927" 
d="M882 730v-44h-103v-686h-48l-517 640v-596h112v-44h-277v44h111v642h-109v44h158l516 -643v599h-108v44h265zM479 -39q40 0 50 -43q10 -45 -20 -83q-28 -32 -72 -33v29q22 0 38.5 14.5t14.5 28.5q-4 -3 -14 -3q-18 0 -31 12.5t-13 32.5q0 19 13.5 32t33.5 13z" />
    <glyph glyph-name="ncommaaccent" unicode="&#x146;" horiz-adv-x="734" 
d="M616 44h104v-44h-266v44h110v245q0 93 -47.5 143.5t-127.5 50.5q-67 0 -118.5 -37.5t-71.5 -98.5v-303h103v-44h-266v44h111v432h-109v44h155v-99q66 109 203 109q101 0 160.5 -62t59.5 -170v-254zM383 -39q40 0 50 -43q10 -45 -20 -83q-28 -32 -72 -33v29
q22 0 38.5 14.5t14.5 28.5q-4 -3 -14 -3q-18 0 -31 12.5t-13 32.5q0 19 13.5 32t33.5 13z" />
    <glyph glyph-name="Ncaron" unicode="&#x147;" horiz-adv-x="927" 
d="M655 917l-181 -125l-181 125l18 30l162 -97l163 98zM882 730v-44h-103v-686h-48l-517 640v-596h112v-44h-277v44h111v642h-109v44h158l516 -643v599h-108v44h265z" />
    <glyph glyph-name="ncaron" unicode="&#x148;" horiz-adv-x="734" 
d="M562 713l-181 -125l-181 125l18 30l162 -97l163 98zM616 44h104v-44h-266v44h110v245q0 93 -47.5 143.5t-127.5 50.5q-67 0 -118.5 -37.5t-71.5 -98.5v-303h103v-44h-266v44h111v432h-109v44h155v-99q66 109 203 109q101 0 160.5 -62t59.5 -170v-254z" />
    <glyph glyph-name="napostrophe" unicode="&#x149;" horiz-adv-x="734" 
d="M9 748q40 0 50 -45q10 -48 -21 -89q-28 -36 -74 -36v31q23 0 40 15.5t20 37.5q-7 -4 -18 -4q-18 0 -31 13t-13 33q0 19 13.5 31.5t33.5 12.5zM616 44h104v-44h-266v44h110v245q0 93 -47.5 143.5t-127.5 50.5q-67 0 -118.5 -37.5t-71.5 -98.5v-303h103v-44h-266v44h111
v432h-109v44h155v-99q66 109 203 109q101 0 160.5 -62t59.5 -170v-254z" />
    <glyph glyph-name="Eng" unicode="&#x14a;" horiz-adv-x="927" 
d="M882 730v-44h-103v-711q0 -84 -44.5 -135t-119.5 -51h-1q-68 0 -109.5 34t-40.5 99q1 20 12.5 32t30.5 12q17 0 27 -10t10 -25q0 -27 -26 -32q3 -28 29.5 -45t66.5 -17q52 0 81 36t29 98v39l-510 626v-592h112v-44h-277v44h111v642h-109v44h158l516 -640v596h-108v44h265
z" />
    <glyph glyph-name="eng" unicode="&#x14b;" horiz-adv-x="705" 
d="M396 530q101 0 160.5 -62t59.5 -170v-343q0 -77 -31.5 -118t-92.5 -41q-37 0 -64.5 19t-34.5 53q-2 17 6 29t23 13q11 2 21 -4t13 -16q5 -18 -7 -29q9 -22 48 -22q67 0 67 114v336q0 93 -47.5 143.5t-127.5 50.5q-67 0 -118.5 -37.5t-71.5 -98.5v-303h103v-44h-266v44
h111v432h-109v44h155v-99q66 109 203 109z" />
    <glyph glyph-name="Omacron" unicode="&#x14c;" horiz-adv-x="873" 
d="M589 863v-44h-306v44h306zM815 366q0 -170 -105 -273t-273 -103h-1q-166 0 -272 103.5t-106 272.5t105.5 271.5t272.5 102.5h1q168 0 273 -102t105 -272zM437 39q141 0 232 88t91 238t-91 238t-232 88q-140 0 -232 -88t-92 -238q0 -149 92 -237.5t232 -88.5z" />
    <glyph glyph-name="omacron" unicode="&#x14d;" horiz-adv-x="635" 
d="M470 687v-44h-306v44h306zM584 262q0 -121 -73 -196.5t-193 -75.5h-1q-120 0 -193 75.5t-73 196.5q0 119 73 193.5t193 74.5h1q119 0 192.5 -74.5t73.5 -193.5zM317 37q95 0 154 61.5t59 162.5q0 100 -59.5 161t-153.5 61t-153.5 -61t-59.5 -161q0 -101 59 -162.5
t154 -61.5z" />
    <glyph glyph-name="Ohungarumlaut" unicode="&#x150;" horiz-adv-x="873" 
d="M458 936l-87 -148h-40l65 149zM592 936l-87 -148h-40l65 149zM815 366q0 -170 -105 -273t-273 -103h-1q-166 0 -272 103.5t-106 272.5t105.5 271.5t272.5 102.5h1q168 0 273 -102t105 -272zM437 39q141 0 232 88t91 238t-91 238t-232 88q-140 0 -232 -88t-92 -238
q0 -149 92 -237.5t232 -88.5z" />
    <glyph glyph-name="ohungarumlaut" unicode="&#x151;" horiz-adv-x="635" 
d="M339 742l-87 -148h-40l65 149zM473 742l-87 -148h-40l65 149zM584 262q0 -121 -73 -196.5t-193 -75.5h-1q-120 0 -193 75.5t-73 196.5q0 119 73 193.5t193 74.5h1q119 0 192.5 -74.5t73.5 -193.5zM317 37q95 0 154 61.5t59 162.5q0 100 -59.5 161t-153.5 61t-153.5 -61
t-59.5 -161q0 -101 59 -162.5t154 -61.5z" />
    <glyph glyph-name="OE" unicode="&#x152;" horiz-adv-x="1319" 
d="M1205 189h49v-189h-494v156q-48 -79 -132.5 -122.5t-190.5 -43.5h-1q-166 0 -272 103.5t-106 272.5t105.5 271.5t272.5 102.5h1q107 0 191 -43.5t132 -121.5v155h493v-189h-49v143h-389v-299h317v-46h-317v-293h390v143zM437 40q141 0 232 87.5t91 237.5t-91 237.5
t-232 87.5t-232.5 -87.5t-91.5 -237.5q0 -149 92 -237t232 -88z" />
    <glyph glyph-name="oe" unicode="&#x153;" horiz-adv-x="1069" 
d="M785 530q109 0 178.5 -76.5t55.5 -203.5l-5 -6h-47l-383 1q5 -95 59.5 -152t142.5 -57q129 0 169 91h53q-23 -65 -81.5 -101t-140.5 -36q-81 0 -140 37.5t-89 104.5q-32 -66 -94 -104t-145 -38h-1q-120 0 -193 75.5t-73 196.5q0 119 73 193.5t193 74.5h1q83 0 145.5 -38
t93.5 -104q31 66 91 104t137 38zM785 484q-78 0 -134 -53.5t-66 -140.5l385 -1q-1 90 -53.5 142.5t-131.5 52.5zM317 37q95 0 154 61.5t59 162.5q0 100 -59.5 161t-153.5 61t-153.5 -61t-59.5 -161q0 -101 59 -162.5t154 -61.5z" />
    <glyph glyph-name="Racute" unicode="&#x154;" horiz-adv-x="803" 
d="M555 898l-194 -112l-19 31l182 131zM662 44h112v-44h-142l-225 264h-192v-220h139v-44h-305v44h111v642h-109v44h377q135 0 214.5 -56t79.5 -178q0 -95 -70 -157t-182 -73zM215 683v-373h215q102 0 169.5 50.5t67.5 135.5q0 187 -237 187h-215z" />
    <glyph glyph-name="racute" unicode="&#x155;" horiz-adv-x="493" 
d="M379 695l-197 -106l-18 31l186 126zM361 530q58 0 87.5 -32.5t23.5 -80.5q-5 -35 -37 -35q-13 0 -22.5 8.5t-9.5 21.5q0 24 18 27q-1 21 -19.5 33.5t-48.5 12.5q-49 0 -94 -36.5t-60 -103.5v-301h105v-44h-268v44h111v432h-109v44h154v-101q25 51 70 81t99 30z" />
    <glyph glyph-name="Rcommaaccent" unicode="&#x156;" horiz-adv-x="803" 
d="M662 44h112v-44h-142l-225 264h-192v-220h139v-44h-305v44h111v642h-109v44h377q135 0 214.5 -56t79.5 -178q0 -95 -70 -157t-182 -73zM215 683v-373h215q102 0 169.5 50.5t67.5 135.5q0 187 -237 187h-215zM423 -39q40 0 50 -43q10 -45 -20 -83q-28 -32 -72 -33v29
q22 0 38.5 14.5t14.5 28.5q-4 -3 -14 -3q-18 0 -31 12.5t-13 32.5q0 19 13.5 32t33.5 13z" />
    <glyph glyph-name="rcommaaccent" unicode="&#x157;" horiz-adv-x="493" 
d="M361 530q58 0 87.5 -32.5t23.5 -80.5q-5 -35 -37 -35q-13 0 -22.5 8.5t-9.5 21.5q0 24 18 27q-1 21 -19.5 33.5t-48.5 12.5q-49 0 -94 -36.5t-60 -103.5v-301h105v-44h-268v44h111v432h-109v44h154v-101q25 51 70 81t99 30zM172 -39q40 0 50 -43q10 -45 -20 -83
q-28 -32 -72 -33v29q22 0 38.5 14.5t14.5 28.5q-4 -3 -14 -3q-18 0 -31 12.5t-13 32.5q0 19 13.5 32t33.5 13z" />
    <glyph glyph-name="Rcaron" unicode="&#x158;" horiz-adv-x="803" 
d="M594 917l-181 -125l-181 125l18 30l162 -97l163 98zM662 44h112v-44h-142l-225 264h-192v-220h139v-44h-305v44h111v642h-109v44h377q135 0 214.5 -56t79.5 -178q0 -95 -70 -157t-182 -73zM215 683v-373h215q102 0 169.5 50.5t67.5 135.5q0 187 -237 187h-215z" />
    <glyph glyph-name="rcaron" unicode="&#x159;" horiz-adv-x="493" 
d="M428 713l-181 -125l-181 125l18 30l162 -97l163 98zM361 530q58 0 87.5 -32.5t23.5 -80.5q-5 -35 -37 -35q-13 0 -22.5 8.5t-9.5 21.5q0 24 18 27q-1 21 -19.5 33.5t-48.5 12.5q-49 0 -94 -36.5t-60 -103.5v-301h105v-44h-268v44h111v432h-109v44h154v-101q25 51 70 81
t99 30z" />
    <glyph glyph-name="Sacute" unicode="&#x15a;" horiz-adv-x="703" 
d="M492 898l-194 -112l-19 31l182 131zM134 548q0 -52 28.5 -84t74 -45t100.5 -20.5t109.5 -17t100 -27t74 -57.5t28.5 -102q0 -92 -76.5 -148t-215.5 -56q-147 0 -225.5 44.5t-77.5 132.5q1 18 12 29.5t29 11.5q17 0 27.5 -10.5t10.5 -27.5q0 -24 -23 -31q5 -43 71 -71.5
t176 -28.5q114 0 175.5 41.5t61.5 112.5q0 52 -28.5 83.5t-74 44.5t-100 20.5t-109.5 17t-100.5 27t-74 57.5t-28.5 103q0 87 71.5 140t208.5 53q119 0 192 -50.5t66 -140.5q-2 -18 -12.5 -29t-28.5 -11q-16 0 -27 10.5t-11 27.5q0 11 7 20t17 10q-2 50 -57 82t-146 32
q-112 0 -168.5 -38.5t-56.5 -104.5z" />
    <glyph glyph-name="sacute" unicode="&#x15b;" horiz-adv-x="538" 
d="M370 746l29 -51l-197 -106l-18 31zM104 94q11 -25 57.5 -41t110.5 -16q79 0 122 27.5t42 72.5q-1 39 -28.5 61.5t-68.5 29t-89 15.5t-89 20.5t-68 44t-27 84.5q0 60 51 99t151 39q108 0 155.5 -39.5t43.5 -94.5q-1 -14 -9.5 -25.5t-24.5 -11.5q-14 0 -24 9t-10 23
q0 21 18 26q-1 13 -11.5 26.5t-46.5 26.5t-91 13q-74 0 -112 -26t-38 -64q0 -46 38 -69.5t92.5 -32t108.5 -19t92.5 -44t38.5 -93.5q0 -65 -56 -105t-160 -40q-191 0 -223 108q-6 24 4 37t28 13q13 0 22.5 -9t9.5 -21q0 -18 -9 -24z" />
    <glyph glyph-name="Scedilla" unicode="&#x15e;" horiz-adv-x="703" 
d="M649 195q0 -91 -74 -146.5t-208 -57.5v-38q43 0 69.5 -21t26.5 -61q0 -41 -31 -66t-78 -25q-60 0 -95 33l18 27q34 -24 74 -24q30 0 49 14.5t19 38.5q0 50 -66 50h-33l3 73q-131 5 -200.5 49t-68.5 127q1 18 12 29.5t29 11.5q17 0 27.5 -10.5t10.5 -27.5q0 -24 -23 -31
q5 -43 71 -71.5t176 -28.5q114 0 175.5 41.5t61.5 112.5q0 52 -28.5 83.5t-74 44.5t-100 20.5t-109.5 17t-100.5 27t-74 57.5t-28.5 103q0 87 71.5 140t208.5 53q119 0 192 -50.5t66 -140.5q-2 -18 -12.5 -29t-28.5 -11q-16 0 -27 10.5t-11 27.5q0 11 7 20t17 10
q-2 50 -57 82t-146 32q-112 0 -168.5 -38.5t-56.5 -104.5q0 -52 28.5 -84t74 -45t100.5 -20.5t109.5 -17t100 -27t74 -57.5t28.5 -102z" />
    <glyph glyph-name="scedilla" unicode="&#x15f;" horiz-adv-x="538" 
d="M488 135q0 -62 -51 -101.5t-148 -43.5v-37q43 0 69.5 -21t26.5 -61q0 -41 -31 -66t-78 -25q-60 0 -95 33l18 27q34 -24 74 -24q30 0 49 14.5t19 38.5q0 50 -66 50h-33l3 72q-166 6 -196 107q-6 24 4 37t28 13q13 0 22.5 -9t9.5 -21q0 -18 -9 -24q11 -25 57.5 -41
t110.5 -16q79 0 122 27.5t42 72.5q-1 39 -28.5 61.5t-68.5 29t-89 15.5t-89 20.5t-68 44t-27 84.5q0 60 51 99t151 39q108 0 155.5 -39.5t43.5 -94.5q-1 -14 -9.5 -25.5t-24.5 -11.5q-14 0 -24 9t-10 23q0 21 18 26q-1 13 -11.5 26.5t-46.5 26.5t-91 13q-74 0 -112 -26
t-38 -64q0 -46 38 -69.5t92.5 -32t108.5 -19t92.5 -44t38.5 -93.5z" />
    <glyph glyph-name="Scaron" unicode="&#x160;" horiz-adv-x="703" 
d="M531 917l-181 -125l-181 125l18 30l162 -97l163 98zM134 548q0 -52 28.5 -84t74 -45t100.5 -20.5t109.5 -17t100 -27t74 -57.5t28.5 -102q0 -92 -76.5 -148t-215.5 -56q-147 0 -225.5 44.5t-77.5 132.5q1 18 12 29.5t29 11.5q17 0 27.5 -10.5t10.5 -27.5q0 -24 -23 -31
q5 -43 71 -71.5t176 -28.5q114 0 175.5 41.5t61.5 112.5q0 52 -28.5 83.5t-74 44.5t-100 20.5t-109.5 17t-100.5 27t-74 57.5t-28.5 103q0 87 71.5 140t208.5 53q119 0 192 -50.5t66 -140.5q-2 -18 -12.5 -29t-28.5 -11q-16 0 -27 10.5t-11 27.5q0 11 7 20t17 10
q-2 50 -57 82t-146 32q-112 0 -168.5 -38.5t-56.5 -104.5z" />
    <glyph glyph-name="scaron" unicode="&#x161;" horiz-adv-x="538" 
d="M448 713l-181 -125l-181 125l18 30l162 -97l163 98zM118 393q0 -46 38 -69.5t92.5 -32t108.5 -19t92.5 -44t38.5 -93.5q0 -65 -56 -105t-160 -40q-191 0 -223 108q-6 24 4 37t28 13q13 0 22.5 -9t9.5 -21q0 -18 -9 -24q11 -25 57.5 -41t110.5 -16q79 0 122 27.5t42 72.5
q-1 39 -28.5 61.5t-68.5 29t-89 15.5t-89 20.5t-68 44t-27 84.5q0 60 51 99t151 39q108 0 155.5 -39.5t43.5 -94.5q-1 -14 -9.5 -25.5t-24.5 -11.5q-14 0 -24 9t-10 23q0 21 18 26q-1 13 -11.5 26.5t-46.5 26.5t-91 13q-74 0 -112 -26t-38 -64z" />
    <glyph glyph-name="uni0162" unicode="&#x162;" horiz-adv-x="717" 
d="M685 730v-194h-48v148h-251v-640h114v-44h-119v-47q43 0 69.5 -21t26.5 -61q0 -41 -31 -66t-78 -25q-60 0 -95 33l18 27q34 -24 74 -24q30 0 49 14.5t19 38.5q0 50 -66 50h-33l3 81h-127v44h121v640h-250v-148h-49v194h653z" />
    <glyph glyph-name="uni0163" unicode="&#x163;" horiz-adv-x="428" 
d="M399 474h-222v-321q0 -116 107 -116q57 0 113 28v-48q-57 -27 -121 -27v-37q43 0 69.5 -21t26.5 -61q0 -41 -31 -66t-78 -25q-60 0 -95 33l18 27q34 -24 74 -24q30 0 49 14.5t19 38.5q0 50 -66 50h-33l3 75q-107 23 -107 156v324h-86v46h86v128h52v-128h222v-46z" />
    <glyph glyph-name="Tcaron" unicode="&#x164;" horiz-adv-x="717" 
d="M540 917l-181 -125l-181 125l18 30l162 -97l163 98zM685 730v-194h-48v148h-251v-640h114v-44h-290v44h121v640h-250v-148h-49v194h653z" />
    <glyph glyph-name="tcaron" unicode="&#x165;" horiz-adv-x="428" 
d="M332 821l-24 -210h-45l16 210h53zM399 474h-222v-321q0 -116 107 -116q57 0 113 28v-48q-57 -27 -121 -27q-73 0 -112 40t-39 120v324h-86v46h86v128h52v-128h222v-46z" />
    <glyph glyph-name="Tbar" unicode="&#x166;" horiz-adv-x="717" 
d="M685 730v-194h-48v148h-251v-296h138v-41h-138v-303h114v-44h-290v44h121v303h-137v41h137v296h-250v-148h-49v194h653z" />
    <glyph glyph-name="tbar" unicode="&#x167;" horiz-adv-x="428" 
d="M399 474h-222v-148h180v-41h-180v-132q0 -116 107 -116q57 0 113 28v-48q-57 -27 -121 -27q-73 0 -112 40t-39 120v135h-98v41h98v148h-86v46h86v128h52v-128h222v-46z" />
    <glyph glyph-name="Utilde" unicode="&#x168;" horiz-adv-x="877" 
d="M375 883q-41 0 -55 -42l-39 10q12 78 87 78q30 0 75 -25.5t66 -25.5q22 0 35 9t21 33l39 -8q-6 -39 -30 -59.5t-62 -19.5q-33 0 -75.5 25t-61.5 25zM839 730v-44h-103v-383q0 -158 -79 -235.5t-216 -77.5t-216.5 77.5t-79.5 235.5v383h-109v44h267v-44h-103v-383
q0 -138 65 -200t176 -62q240 0 240 262v383h-109v44h267z" />
    <glyph glyph-name="utilde" unicode="&#x169;" horiz-adv-x="698" 
d="M255 692q-41 0 -55 -42l-39 10q12 78 87 78q30 0 75 -25.5t66 -25.5q22 0 35 9t21 33l39 -8q-6 -39 -30 -59.5t-62 -19.5q-33 0 -75.5 25t-61.5 25zM566 44h109v-44h-155v99q-65 -109 -197 -109q-89 0 -147.5 59.5t-58.5 149.5v277h-103v44h155v-320q0 -70 46 -116
t113 -47q64 -1 115 37t71 99v303h-103v44h155v-476z" />
    <glyph glyph-name="Umacron" unicode="&#x16a;" horiz-adv-x="877" 
d="M594 863v-44h-306v44h306zM839 730v-44h-103v-383q0 -158 -79 -235.5t-216 -77.5t-216.5 77.5t-79.5 235.5v383h-109v44h267v-44h-103v-383q0 -138 65 -200t176 -62q240 0 240 262v383h-109v44h267z" />
    <glyph glyph-name="umacron" unicode="&#x16b;" horiz-adv-x="698" 
d="M480 687v-44h-306v44h306zM566 44h109v-44h-155v99q-65 -109 -197 -109q-89 0 -147.5 59.5t-58.5 149.5v277h-103v44h155v-320q0 -70 46 -116t113 -47q64 -1 115 37t71 99v303h-103v44h155v-476z" />
    <glyph glyph-name="Uring" unicode="&#x16e;" horiz-adv-x="877" 
d="M440 790q-46 0 -75 27.5t-29 70.5t29 70.5t75 27.5t75 -27.5t29 -70.5t-29 -70.5t-75 -27.5zM440 948q-26 0 -44 -17t-18 -43t18 -43t44 -17t44 17t18 43t-18 43t-44 17zM839 730v-44h-103v-383q0 -158 -79 -235.5t-216 -77.5t-216.5 77.5t-79.5 235.5v383h-109v44h267
v-44h-103v-383q0 -138 65 -200t176 -62q240 0 240 262v383h-109v44h267z" />
    <glyph glyph-name="uring" unicode="&#x16f;" horiz-adv-x="698" 
d="M327 592q-46 0 -75 27.5t-29 70.5t29 70.5t75 27.5t75 -27.5t29 -70.5t-29 -70.5t-75 -27.5zM327 750q-26 0 -44 -17t-18 -43t18 -43t44 -17t44 17t18 43t-18 43t-44 17zM566 44h109v-44h-155v99q-65 -109 -197 -109q-89 0 -147.5 59.5t-58.5 149.5v277h-103v44h155v-320
q0 -70 46 -116t113 -47q64 -1 115 37t71 99v303h-103v44h155v-476z" />
    <glyph glyph-name="Uhungarumlaut" unicode="&#x170;" horiz-adv-x="877" 
d="M463 936l-87 -148h-40l65 149zM597 936l-87 -148h-40l65 149zM839 730v-44h-103v-383q0 -158 -79 -235.5t-216 -77.5t-216.5 77.5t-79.5 235.5v383h-109v44h267v-44h-103v-383q0 -138 65 -200t176 -62q240 0 240 262v383h-109v44h267z" />
    <glyph glyph-name="uhungarumlaut" unicode="&#x171;" horiz-adv-x="698" 
d="M349 742l-87 -148h-40l65 149zM483 742l-87 -148h-40l65 149zM566 44h109v-44h-155v99q-65 -109 -197 -109q-89 0 -147.5 59.5t-58.5 149.5v277h-103v44h155v-320q0 -70 46 -116t113 -47q64 -1 115 37t71 99v303h-103v44h155v-476z" />
    <glyph glyph-name="Uogonek" unicode="&#x172;" horiz-adv-x="877" 
d="M839 730v-44h-103v-383q0 -146 -67.5 -223t-186.5 -88q-83 -52 -83 -121q0 -26 16 -40.5t42 -14.5q22 0 42 6v-35q-24 -8 -48 -8q-44 0 -70.5 24t-26.5 66q0 70 72 121q-131 5 -206 82t-75 231v383h-109v44h267v-44h-103v-383q0 -138 65 -200t176 -62q240 0 240 262v383
h-109v44h267z" />
    <glyph glyph-name="uogonek" unicode="&#x173;" horiz-adv-x="698" 
d="M566 44h109v-44h-112q-97 -53 -97 -129q0 -26 16 -40.5t42 -14.5q22 0 42 6v-35q-24 -8 -48 -8q-44 0 -70.5 24t-26.5 66q0 80 99 139v91q-65 -109 -197 -109q-89 0 -147.5 59.5t-58.5 149.5v277h-103v44h155v-320q0 -70 46 -116t113 -47q64 -1 115 37t71 99v303h-103v44
h155v-476z" />
    <glyph glyph-name="Wcircumflex" unicode="&#x174;" horiz-adv-x="1089" 
d="M551 875l-152 -76l-17 30l169 103l171 -103l-16 -30zM1091 730v-44h-88l-188 -686h-54l-214 492l-214 -492h-53l-196 686h-91v44h263v-44h-114l168 -615l215 494h44l216 -499l163 620h-119v44h262z" />
    <glyph glyph-name="wcircumflex" unicode="&#x175;" horiz-adv-x="921" 
d="M462 684l-152 -76l-17 30l169 103l171 -103l-16 -30zM920 520v-44h-94l-168 -476h-63l-133 406l-141 -406h-63l-161 476h-92l-1 44h238v-44h-91l138 -421l143 417h60l135 -420l146 424h-89v44h236z" />
    <glyph glyph-name="Ycircumflex" unicode="&#x176;" horiz-adv-x="752" 
d="M383 875l-152 -76l-17 30l169 103l171 -103l-16 -30zM640 686l-231 -404v-238h113v-44h-282v44h114v238l-255 404h-94v44h249v-44h-94l223 -363l202 363h-102v44h262v-44h-105z" />
    <glyph glyph-name="ycircumflex" unicode="&#x177;" horiz-adv-x="680" 
d="M342 684l-152 -76l-17 30l169 103l171 -103l-16 -30zM677 520v-44h-100l-249 -579q-45 -105 -132 -105q-35 0 -58 15.5t-27 44.5q-2 18 5.5 28.5t22.5 11.5q12 1 20.5 -6t10.5 -18q2 -15 -8 -23q7 -11 38 -11q51 0 80 64l43 102h-14l-207 476h-97l-1 44h241v-44h-85
l182 -434l182 434h-92v44h245z" />
    <glyph glyph-name="Ydieresis" unicode="&#x178;" horiz-adv-x="752" 
d="M300 825q-17 0 -30 13t-13 31q0 17 13 29.5t30 12.5q18 0 30.5 -12.5t12.5 -29.5q0 -18 -12.5 -31t-30.5 -13zM468 825q-17 0 -30 13t-13 31q0 17 13 29.5t30 12.5q18 0 30.5 -12.5t12.5 -29.5q0 -18 -12.5 -31t-30.5 -13zM640 686l-231 -404v-238h113v-44h-282v44h114
v238l-255 404h-94v44h249v-44h-94l223 -363l202 363h-102v44h262v-44h-105z" />
    <glyph glyph-name="Zacute" unicode="&#x179;" horiz-adv-x="712" 
d="M511 898l-194 -112l-19 31l182 131zM624 189h44v-189h-621v33l524 651h-464v-143h-46v189h580v-32l-524 -652h507v143z" />
    <glyph glyph-name="zacute" unicode="&#x17a;" horiz-adv-x="555" 
d="M410 695l-197 -106l-18 31l186 126zM467 116h48v-116h-474l-1 30l397 444h-343v-78h-47v124h455v-40l-386 -435l351 1v70z" />
    <glyph glyph-name="Zdotaccent" unicode="&#x17b;" horiz-adv-x="712" 
d="M368 816q-20 0 -33.5 13.5t-13.5 33.5q0 18 14 31.5t33 13.5t32.5 -13.5t13.5 -31.5q0 -20 -13.5 -33.5t-32.5 -13.5zM624 189h44v-189h-621v33l524 651h-464v-143h-46v189h580v-32l-524 -652h507v143z" />
    <glyph glyph-name="zdotaccent" unicode="&#x17c;" horiz-adv-x="555" 
d="M278 655q-20 0 -33.5 13.5t-13.5 33.5q0 18 14 31.5t33 13.5t32.5 -13.5t13.5 -31.5q0 -20 -13.5 -33.5t-32.5 -13.5zM467 116h48v-116h-474l-1 30l397 444h-343v-78h-47v124h455v-40l-386 -435l351 1v70z" />
    <glyph glyph-name="Zcaron" unicode="&#x17d;" horiz-adv-x="712" 
d="M550 917l-181 -125l-181 125l18 30l162 -97l163 98zM624 189h44v-189h-621v33l524 651h-464v-143h-46v189h580v-32l-524 -652h507v143z" />
    <glyph glyph-name="zcaron" unicode="&#x17e;" horiz-adv-x="555" 
d="M459 713l-181 -125l-181 125l18 30l162 -97l163 98zM467 116h48v-116h-474l-1 30l397 444h-343v-78h-47v124h455v-40l-386 -435l351 1v70z" />
    <glyph glyph-name="uni01EA" unicode="&#x1ea;" horiz-adv-x="873" 
d="M474 -9q-82 -50 -82 -120q0 -26 16 -40.5t42 -14.5q22 0 42 6v-35q-24 -8 -48 -8q-44 0 -70.5 24t-26.5 66q0 70 72 121q-160 6 -260.5 108.5t-100.5 267.5q0 169 105.5 271.5t272.5 102.5h1q168 0 273 -102t105 -272q0 -160 -93.5 -261t-247.5 -114zM113 365
q0 -149 92 -237.5t232 -88.5q141 0 232 88t91 238t-91 238t-232 88q-140 0 -232 -88t-92 -238z" />
    <glyph glyph-name="uni01EB" unicode="&#x1eb;" horiz-adv-x="635" 
d="M339 -9q-81 -50 -81 -120q0 -26 16 -40.5t42 -14.5q22 0 42 6v-35q-24 -8 -48 -8q-44 0 -70.5 24t-26.5 66q0 71 74 122q-108 10 -172 84t-64 187q0 119 73 193.5t193 74.5h1q119 0 192.5 -74.5t73.5 -193.5q0 -116 -67 -190t-178 -81zM104 261q0 -101 59 -162.5
t154 -61.5t154 61.5t59 162.5q0 100 -59.5 161t-153.5 61t-153.5 -61t-59.5 -161z" />
    <glyph glyph-name="AEacute" unicode="&#x1fc;" horiz-adv-x="1121" 
d="M849 898l-194 -112l-19 31l182 131zM1007 189h49v-189h-604v44h120v163h-319l-108 -163h106v-44h-258v44h90l423 640h-177v46h726v-189h-48v143h-380v-301h308v-46h-308v-291h380v143zM283 252h289v435z" />
    <glyph glyph-name="aeacute" unicode="&#x1fd;" horiz-adv-x="975" 
d="M638 695l-197 -106l-18 31l186 126zM697 530q48 0 92 -19t77 -54t50 -88.5t10 -116.5l-6 -6h-45l-374 1q4 -96 56.5 -153t135.5 -57q122 0 166 89h51q-23 -62 -81 -99t-136 -37q-76 0 -132 36.5t-86 101.5q-26 -66 -85 -102t-143 -36q-91 0 -143.5 40t-52.5 109
q0 74 56 112.5t160 38.5h181v5q0 85 -46.5 136.5t-129.5 51.5q-75 0 -111.5 -31.5t-38.5 -59.5q15 -4 14 -22q-2 -27 -30 -27q-15 0 -23.5 10t-9.5 22q-6 57 45.5 106t153.5 49q77 0 131 -34.5t78 -94.5q32 60 89 94.5t127 34.5zM697 484q-76 0 -130.5 -53.5t-63.5 -139.5
h374q-2 90 -55 141.5t-125 51.5zM258 37q77 0 127.5 37.5t62.5 109.5v61h-184q-81 0 -120 -24t-39 -79q0 -50 40.5 -77.5t112.5 -27.5z" />
    <glyph glyph-name="Oslashacute" unicode="&#x1fe;" horiz-adv-x="873" 
d="M574 898l-194 -112l-19 31l182 131zM815 366q0 -170 -105 -273t-273 -103h-1q-133 0 -229 68l-59 -73l-38 27l61 75q-113 105 -113 279q0 169 105.5 271.5t272.5 102.5h1q123 0 214 -57l53 66l39 -26l-54 -67q126 -104 126 -290zM113 365q0 -148 91 -237l414 515
q-79 48 -181 48q-140 0 -232 -88t-92 -238zM437 39q141 0 232 88t91 238q0 160 -104 250l-417 -517q85 -59 198 -59z" />
    <glyph glyph-name="oslashacute" unicode="&#x1ff;" horiz-adv-x="635" 
d="M466 695l-197 -106l-18 31l186 126zM584 262q0 -121 -73 -196.5t-193 -75.5h-1q-114 0 -186 69l-62 -60l-23 23l63 61q-58 72 -58 179q0 119 73 193.5t193 74.5h1q114 0 185 -68l53 51l24 -23l-54 -52q58 -72 58 -176zM104 261q0 -84 42 -142l320 307q-59 57 -149 57
q-94 0 -153.5 -61t-59.5 -161zM317 37q95 0 154 61.5t59 162.5q0 84 -42 140l-320 -307q59 -57 149 -57z" />
    <glyph glyph-name="Scommaaccent" unicode="&#x218;" horiz-adv-x="703" 
d="M134 548q0 -52 28.5 -84t74 -45t100.5 -20.5t109.5 -17t100 -27t74 -57.5t28.5 -102q0 -92 -76.5 -148t-215.5 -56q-147 0 -225.5 44.5t-77.5 132.5q1 18 12 29.5t29 11.5q17 0 27.5 -10.5t10.5 -27.5q0 -24 -23 -31q5 -43 71 -71.5t176 -28.5q114 0 175.5 41.5
t61.5 112.5q0 52 -28.5 83.5t-74 44.5t-100 20.5t-109.5 17t-100.5 27t-74 57.5t-28.5 103q0 87 71.5 140t208.5 53q119 0 192 -50.5t66 -140.5q-2 -18 -12.5 -29t-28.5 -11q-16 0 -27 10.5t-11 27.5q0 11 7 20t17 10q-2 50 -57 82t-146 32q-112 0 -168.5 -38.5
t-56.5 -104.5zM347 -39q40 0 50 -43q10 -45 -20 -83q-28 -32 -72 -33v29q22 0 38.5 14.5t14.5 28.5q-4 -3 -14 -3q-18 0 -31 12.5t-13 32.5q0 19 13.5 32t33.5 13z" />
    <glyph glyph-name="scommaaccent" unicode="&#x219;" horiz-adv-x="538" 
d="M104 94q11 -25 57.5 -41t110.5 -16q79 0 122 27.5t42 72.5q-1 39 -28.5 61.5t-68.5 29t-89 15.5t-89 20.5t-68 44t-27 84.5q0 60 51 99t151 39q108 0 155.5 -39.5t43.5 -94.5q-1 -14 -9.5 -25.5t-24.5 -11.5q-14 0 -24 9t-10 23q0 21 18 26q-1 13 -11.5 26.5t-46.5 26.5
t-91 13q-74 0 -112 -26t-38 -64q0 -46 38 -69.5t92.5 -32t108.5 -19t92.5 -44t38.5 -93.5q0 -65 -56 -105t-160 -40q-191 0 -223 108q-6 24 4 37t28 13q13 0 22.5 -9t9.5 -21q0 -18 -9 -24zM227 -198v29q22 0 38.5 14.5t14.5 28.5q-4 -3 -14 -3q-18 0 -31 12.5t-13 32.5
q0 19 13.5 32t33.5 13q40 0 50 -43q10 -45 -20 -83q-28 -32 -72 -33z" />
    <glyph glyph-name="uni021A" unicode="&#x21a;" horiz-adv-x="717" 
d="M685 730v-194h-48v148h-251v-640h114v-44h-290v44h121v640h-250v-148h-49v194h653zM361 -39q40 0 50 -43q10 -45 -20 -83q-28 -32 -72 -33v29q22 0 38.5 14.5t14.5 28.5q-4 -3 -14 -3q-18 0 -31 12.5t-13 32.5q0 19 13.5 32t33.5 13z" />
    <glyph glyph-name="uni021B" unicode="&#x21b;" horiz-adv-x="428" 
d="M399 474h-222v-321q0 -116 107 -116q57 0 113 28v-48q-57 -27 -121 -27q-73 0 -112 40t-39 120v324h-86v46h86v128h52v-128h222v-46zM256 -39q40 0 50 -43q10 -45 -20 -83q-28 -32 -72 -33v29q22 0 38.5 14.5t14.5 28.5q-4 -3 -14 -3q-18 0 -31 12.5t-13 32.5
q0 19 13.5 32t33.5 13z" />
    <glyph glyph-name="circumflex" unicode="&#x2c6;" horiz-adv-x="600" 
d="M535 638l-16 -30l-155 76l-152 -76l-17 30l169 103z" />
    <glyph glyph-name="caron" unicode="&#x2c7;" horiz-adv-x="600" 
d="M395 744l19 -31l-181 -125l-181 125l18 30l162 -97z" />
    <glyph glyph-name="breve" unicode="&#x2d8;" horiz-adv-x="600" 
d="M168 723q7 -38 42.5 -62t83.5 -24q47 0 83.5 23.5t43.5 62.5l40 -4q-5 -56 -52 -90t-115 -34q-67 0 -115 33t-52 91z" />
    <glyph glyph-name="dotaccent" unicode="&#x2d9;" horiz-adv-x="303" 
d="M150 693q-18 0 -31 13t-13 32q0 17 13 29.5t31 12.5t31 -12.5t13 -29.5q0 -19 -13 -32t-31 -13z" />
    <glyph glyph-name="ring" unicode="&#x2da;" horiz-adv-x="600" 
d="M161 592q-46 0 -75 27.5t-29 70.5t29 70.5t75 27.5t75 -27.5t29 -70.5t-29 -70.5t-75 -27.5zM161 630q26 0 44 17t18 43t-18 43t-44 17t-44 -17t-18 -43t18 -43t44 -17z" />
    <glyph glyph-name="ogonek" unicode="&#x2db;" horiz-adv-x="600" 
d="M346 -212q-24 -8 -48 -8q-44 0 -70.5 24t-26.5 66q0 88 121 151l21 -20q-97 -53 -97 -129q0 -26 16 -40.5t42 -14.5q22 0 42 6v-35z" />
    <glyph glyph-name="tilde" unicode="&#x2dc;" horiz-adv-x="600" 
d="M431 721q-6 -39 -30 -59.5t-62 -19.5q-33 0 -75.5 25t-61.5 25q-42 0 -55 -42l-39 10q12 78 87 78q29 0 75 -25.5t66 -25.5q22 0 35 9t21 33z" />
    <glyph glyph-name="hungarumlaut" unicode="&#x2dd;" horiz-adv-x="600" 
d="M265 743l62 -1l-87 -148h-40zM399 743l62 -1l-87 -148h-40z" />
    <glyph glyph-name="gravecomb" unicode="&#x300;" 
d="M-365 745l186 -127l-17 -30l-196 107z" />
    <glyph glyph-name="acutecomb" unicode="&#x301;" 
d="M-208 746l29 -51l-197 -106l-18 31z" />
    <glyph glyph-name="uni0302" unicode="&#x302;" 
d="M-62 638l-16 -30l-155 76l-152 -76l-17 30l169 103z" />
    <glyph glyph-name="tildecomb" unicode="&#x303;" 
d="M-113 721q-6 -39 -30 -59.5t-62 -19.5q-33 0 -75.5 25t-61.5 25q-42 0 -55 -42l-39 10q12 78 87 78q29 0 75 -25.5t66 -25.5q22 0 35 9t21 33z" />
    <glyph glyph-name="uni0304" unicode="&#x304;" 
d="M-440 687h306v-44h-306v44z" />
    <glyph glyph-name="uni0306" unicode="&#x306;" 
d="M-432 723q7 -38 42.5 -62t83.5 -24q47 0 83.5 23.5t43.5 62.5l40 -4q-5 -56 -52 -90t-115 -34q-67 0 -115 33t-52 91z" />
    <glyph glyph-name="uni0307" unicode="&#x307;" 
d="M-136 655q-20 0 -33.5 13.5t-13.5 33.5q0 18 14 31.5t33 13.5t32.5 -13.5t13.5 -31.5q0 -20 -13.5 -33.5t-32.5 -13.5z" />
    <glyph glyph-name="uni0308" unicode="&#x308;" 
d="M-256 645q-17 0 -30 13t-13 31q0 17 13 29.5t30 12.5q18 0 30.5 -12.5t12.5 -29.5q0 -18 -12.5 -31t-30.5 -13zM-88 645q-17 0 -30 13t-13 31q0 17 13 29.5t30 12.5q18 0 30.5 -12.5t12.5 -29.5q0 -18 -12.5 -31t-30.5 -13z" />
    <glyph glyph-name="uni030A" unicode="&#x30a;" 
d="M-161 592q-46 0 -75 27.5t-29 70.5t29 70.5t75 27.5t75 -27.5t29 -70.5t-29 -70.5t-75 -27.5zM-161 630q26 0 44 17t18 43t-18 43t-44 17t-44 -17t-18 -43t18 -43t44 -17z" />
    <glyph glyph-name="uni030B" unicode="&#x30b;" 
d="M-335 743l62 -1l-87 -148h-40zM-201 743l62 -1l-87 -148h-40z" />
    <glyph glyph-name="uni030C" unicode="&#x30c;" 
d="M-71 744l19 -31l-181 -125l-181 125l18 30l162 -97z" />
    <glyph glyph-name="uni0326" unicode="&#x326;" 
d="M-192 -198v29q22 0 38.5 14.5t14.5 28.5q-4 -3 -14 -3q-18 0 -31 12.5t-13 32.5q0 19 13.5 32t33.5 13q40 0 50 -43q10 -45 -20 -83q-28 -32 -72 -33z" />
    <glyph glyph-name="uni0327" unicode="&#x327;" 
d="M-342 -81l3 84h44v-50q43 0 69.5 -21t26.5 -61q0 -41 -31 -66t-78 -25q-60 0 -95 33l18 27q34 -24 74 -24q30 0 49 14.5t19 38.5q0 50 -66 50h-33z" />
    <glyph glyph-name="uni0328" unicode="&#x328;" 
d="M-254 -212q-24 -8 -48 -8q-44 0 -70.5 24t-26.5 66q0 88 121 151l21 -20q-97 -53 -97 -129q0 -26 16 -40.5t42 -14.5q22 0 42 6v-35z" />
    <glyph glyph-name="uni0335" unicode="&#x335;" 
d="M-366 429h330v-41h-330v41z" />
    <glyph glyph-name="uni0336" unicode="&#x336;" 
d="M-809 433h792v-43h-792v43z" />
    <glyph glyph-name="uni0337" unicode="&#x337;" 
d="M-76 470l22 -35l-279 -175l-22 34z" />
    <glyph glyph-name="uni0338" unicode="&#x338;" 
d="M-53 517l24 -23l-511 -491l-23 23z" />
    <glyph glyph-name="Wgrave" unicode="&#x1e80;" horiz-adv-x="1089" 
d="M656 821l-17 -29l-195 109l28 50zM1091 730v-44h-88l-188 -686h-54l-214 492l-214 -492h-53l-196 686h-91v44h263v-44h-114l168 -615l215 494h44l216 -499l163 620h-119v44h262z" />
    <glyph glyph-name="wgrave" unicode="&#x1e81;" horiz-adv-x="921" 
d="M569 618l-17 -30l-196 107l27 50zM920 520v-44h-94l-168 -476h-63l-133 406l-141 -406h-63l-161 476h-92l-1 44h238v-44h-91l138 -421l143 417h60l135 -420l146 424h-89v44h236z" />
    <glyph glyph-name="Wacute" unicode="&#x1e82;" horiz-adv-x="1089" 
d="M695 898l-194 -112l-19 31l182 131zM1091 730v-44h-88l-188 -686h-54l-214 492l-214 -492h-53l-196 686h-91v44h263v-44h-114l168 -615l215 494h44l216 -499l163 620h-119v44h262z" />
    <glyph glyph-name="wacute" unicode="&#x1e83;" horiz-adv-x="921" 
d="M594 695l-197 -106l-18 31l186 126zM920 520v-44h-94l-168 -476h-63l-133 406l-141 -406h-63l-161 476h-92l-1 44h238v-44h-91l138 -421l143 417h60l135 -420l146 424h-89v44h236z" />
    <glyph glyph-name="Wdieresis" unicode="&#x1e84;" horiz-adv-x="1089" 
d="M468 825q-17 0 -30 13t-13 31q0 17 13 29.5t30 12.5q18 0 30.5 -12.5t12.5 -29.5q0 -18 -12.5 -31t-30.5 -13zM636 825q-17 0 -30 13t-13 31q0 17 13 29.5t30 12.5q18 0 30.5 -12.5t12.5 -29.5q0 -18 -12.5 -31t-30.5 -13zM1091 730v-44h-88l-188 -686h-54l-214 492
l-214 -492h-53l-196 686h-91v44h263v-44h-114l168 -615l215 494h44l216 -499l163 620h-119v44h262z" />
    <glyph glyph-name="wdieresis" unicode="&#x1e85;" horiz-adv-x="921" 
d="M378 645q-17 0 -30 13t-13 31q0 17 13 29.5t30 12.5q18 0 30.5 -12.5t12.5 -29.5q0 -18 -12.5 -31t-30.5 -13zM546 645q-17 0 -30 13t-13 31q0 17 13 29.5t30 12.5q18 0 30.5 -12.5t12.5 -29.5q0 -18 -12.5 -31t-30.5 -13zM920 520v-44h-94l-168 -476h-63l-133 406
l-141 -406h-63l-161 476h-92l-1 44h238v-44h-91l138 -421l143 417h60l135 -420l146 424h-89v44h236z" />
    <glyph glyph-name="uni1E9E" unicode="&#x1e9e;" horiz-adv-x="841" 
d="M537 548q0 -36 14 -63t36.5 -44.5t50 -32.5t55 -32.5t50 -39.5t36.5 -58t14 -84q0 -93 -61 -148t-168 -55q-113 0 -172 44t-57 125q1 19 12 30.5t30 11.5q17 0 27 -11t10 -28q0 -12 -7.5 -20.5t-18.5 -10.5q13 -92 176 -92q81 0 127.5 41.5t46.5 112.5q0 53 -26.5 90
t-64 59t-75 44.5t-64 62.5t-26.5 98q0 87 62 135h-194q-67 0 -109.5 -37t-42.5 -100v-546h-55v546q0 83 58 133.5t149 50.5h287v-47q-29 0 -64.5 -36.5t-35.5 -98.5zM40 0v44h102v-44h-102z" />
    <glyph glyph-name="Ygrave" unicode="&#x1ef2;" horiz-adv-x="752" 
d="M488 821l-17 -29l-195 109l28 50zM640 686l-231 -404v-238h113v-44h-282v44h114v238l-255 404h-94v44h249v-44h-94l223 -363l202 363h-102v44h262v-44h-105z" />
    <glyph glyph-name="ygrave" unicode="&#x1ef3;" horiz-adv-x="680" 
d="M449 618l-17 -30l-196 107l27 50zM677 520v-44h-100l-249 -579q-45 -105 -132 -105q-35 0 -58 15.5t-27 44.5q-2 18 5.5 28.5t22.5 11.5q12 1 20.5 -6t10.5 -18q2 -15 -8 -23q7 -11 38 -11q51 0 80 64l43 102h-14l-207 476h-97l-1 44h241v-44h-85l182 -434l182 434h-92
v44h245z" />
    <glyph glyph-name="uni1EF8" unicode="&#x1ef8;" horiz-adv-x="752" 
d="M318 883q-42 0 -55 -42l-39 10q12 78 87 78q29 0 75 -25.5t66 -25.5q22 0 35 9t21 33l39 -8q-6 -39 -30 -59.5t-62 -19.5q-33 0 -75.5 25t-61.5 25zM640 686l-231 -404v-238h113v-44h-282v44h114v238l-255 404h-94v44h249v-44h-94l223 -363l202 363h-102v44h262v-44h-105
z" />
    <glyph glyph-name="uni1EF9" unicode="&#x1ef9;" horiz-adv-x="680" 
d="M270 692q-42 0 -55 -42l-39 10q12 78 87 78q29 0 75 -25.5t66 -25.5q22 0 35 9t21 33l39 -8q-6 -39 -30 -59.5t-62 -19.5q-33 0 -75.5 25t-61.5 25zM677 520v-44h-100l-249 -579q-45 -105 -132 -105q-35 0 -58 15.5t-27 44.5q-2 18 5.5 28.5t22.5 11.5q12 1 20.5 -6
t10.5 -18q2 -15 -8 -23q7 -11 38 -11q51 0 80 64l43 102h-14l-207 476h-97l-1 44h241v-44h-85l182 -434l182 434h-92v44h245z" />
    <glyph glyph-name="endash" unicode="&#x2013;" horiz-adv-x="623" 
d="M548 287v-47h-472v47h472z" />
    <glyph glyph-name="emdash" unicode="&#x2014;" horiz-adv-x="757" 
d="M681 287v-47h-605v47h605z" />
    <glyph glyph-name="quoteleft" unicode="&#x2018;" horiz-adv-x="233" 
d="M161 712v-31q-23 0 -40 -15.5t-20 -37.5q7 4 18 4q18 0 31 -13t13 -33q0 -19 -13.5 -31.5t-33.5 -12.5q-40 0 -50 45q-10 48 21 89q28 36 74 36z" />
    <glyph glyph-name="quoteright" unicode="&#x2019;" horiz-adv-x="229" 
d="M75 570v31q23 0 40 15.5t20 37.5q-7 -4 -18 -4q-18 0 -31 13t-13 33q0 19 13.5 31.5t33.5 12.5q40 0 50 -45q10 -48 -21 -89q-28 -36 -74 -36z" />
    <glyph glyph-name="quotesinglbase" unicode="&#x201a;" horiz-adv-x="244" 
d="M76 -90v31q23 0 40 15.5t20 37.5q-7 -4 -18 -4q-18 0 -31 13t-13 33q0 19 13.5 31.5t33.5 12.5q40 0 50 -45q10 -48 -21 -89q-28 -36 -74 -36z" />
    <glyph glyph-name="quotedblleft" unicode="&#x201c;" horiz-adv-x="375" 
d="M161 712v-31q-23 0 -40 -15.5t-20 -37.5q7 4 18 4q18 0 31 -13t13 -33q0 -19 -13.5 -31.5t-33.5 -12.5q-40 0 -50 45q-10 48 21 89q28 36 74 36zM302 712v-31q-23 0 -40 -15.5t-20 -37.5q7 4 18 4q18 0 31 -13t13 -33q0 -19 -13.5 -31.5t-33.5 -12.5q-40 0 -50 45
q-10 48 21 89q28 36 74 36z" />
    <glyph glyph-name="quotedblright" unicode="&#x201d;" horiz-adv-x="371" 
d="M75 570v31q23 0 40 15.5t20 37.5q-7 -4 -18 -4q-18 0 -31 13t-13 33q0 19 13.5 31.5t33.5 12.5q40 0 50 -45q10 -48 -21 -89q-28 -36 -74 -36zM216 570v31q23 0 40 15.5t20 37.5q-7 -4 -18 -4q-18 0 -31 13t-13 33q0 19 13.5 31.5t33.5 12.5q40 0 50 -45q10 -48 -21 -89
q-28 -36 -74 -36z" />
    <glyph glyph-name="quotedblbase" unicode="&#x201e;" horiz-adv-x="385" 
d="M76 -90v31q23 0 40 15.5t20 37.5q-7 -4 -18 -4q-18 0 -31 13t-13 33q0 19 13.5 31.5t33.5 12.5q40 0 50 -45q10 -48 -21 -89q-28 -36 -74 -36zM217 -90v31q23 0 40 15.5t20 37.5q-7 -4 -18 -4q-18 0 -31 13t-13 33q0 19 13.5 31.5t33.5 12.5q40 0 50 -45q10 -48 -21 -89
q-28 -36 -74 -36z" />
    <glyph glyph-name="dagger" unicode="&#x2020;" horiz-adv-x="570" 
d="M522 516v-48h-209l-4 -528h-47l-3 528h-211v48h211l-2 264h58l-2 -264h209z" />
    <glyph glyph-name="daggerdbl" unicode="&#x2021;" horiz-adv-x="570" 
d="M522 493h-209l-1 -145h210v-47h-210l-3 -361h-47l-2 361h-212v47h212l-1 145h-211v47h210l-1 240h58l-2 -240h209v-47z" />
    <glyph glyph-name="bullet" unicode="&#x2022;" horiz-adv-x="413" 
d="M206 181q-47 0 -80 34.5t-33 83.5q0 44 33.5 77t79.5 33t79.5 -33t33.5 -77q0 -49 -33 -83.5t-80 -34.5z" />
    <glyph glyph-name="ellipsis" unicode="&#x2026;" horiz-adv-x="656" 
d="M118 -10q-19 0 -32 13.5t-13 33.5q0 19 13 32t32 13t32.5 -13t13.5 -32q0 -20 -13.5 -33.5t-32.5 -13.5zM325 -10q-19 0 -32 13.5t-13 33.5q0 19 13 32t32 13t32.5 -13t13.5 -32q0 -20 -13.5 -33.5t-32.5 -13.5zM537 -10q-19 0 -32 13.5t-13 33.5q0 19 13 32t32 13
t32.5 -13t13.5 -32q0 -20 -13.5 -33.5t-32.5 -13.5z" />
    <glyph glyph-name="perthousand" unicode="&#x2030;" horiz-adv-x="1335" 
d="M203 359h-1q-73 1 -118.5 53t-45.5 138t45.5 137.5t118.5 52.5h1q73 -1 118.5 -52.5t45.5 -137.5t-45.5 -138t-118.5 -53zM609 723l39 -15l-304 -686l-41 16zM82 550q0 -68 34 -109.5t87 -41.5q52 0 85.5 41.5t33.5 109.5t-33.5 109t-85.5 41q-53 0 -87 -41t-34 -109z
M738 371q73 -1 118.5 -53t45.5 -137q0 -87 -45.5 -138.5t-118.5 -52.5h-1q-73 1 -118.5 52.5t-45.5 138.5q0 85 45.5 137t118.5 53h1zM1296 181q0 -87 -45.5 -138.5t-119.5 -52.5h-1q-72 1 -117.5 52.5t-45.5 138.5q0 85 45.5 137t117.5 53h1q73 -1 119 -53t46 -137zM737 30
q53 0 86.5 41.5t33.5 109.5t-33.5 109t-86.5 41t-86.5 -41t-33.5 -109t33.5 -109.5t86.5 -41.5zM1131 30q53 0 86.5 41.5t33.5 109.5t-33.5 109t-86.5 41t-86.5 -41t-33.5 -109t33.5 -109.5t86.5 -41.5z" />
    <glyph glyph-name="guilsinglleft" unicode="&#x2039;" horiz-adv-x="380" 
d="M304 455v-54l-219 -130l219 -124v-54l-261 154v47z" />
    <glyph glyph-name="guilsinglright" unicode="&#x203a;" horiz-adv-x="378" 
d="M76 455l259 -161v-47l-259 -154v54l220 124l-220 131v53z" />
    <glyph glyph-name="fraction" unicode="&#x2044;" horiz-adv-x="377" 
d="M25 -10l281 743h47l-281 -743h-47z" />
    <glyph glyph-name="Euro" unicode="&#x20ac;" horiz-adv-x="814" 
d="M672 388q0 13 7 22t18 11q1 73 -69.5 122t-166.5 49q-106 0 -179 -55.5t-91 -156.5h318l-9 -36h-314q-1 -9 -1 -29q0 -23 1 -34h299l-8 -37h-286q20 -103 93 -154.5t173 -51.5q87 0 154.5 43.5t85.5 112.5h52q-18 -89 -100 -146.5t-192 -57.5q-125 0 -213 64t-108 190
h-98l9 37h84q-1 11 -1 35q0 19 1 28h-71l9 36h66q19 124 107.5 192t218.5 68q127 0 211.5 -70t78.5 -178q-2 -18 -13 -29t-29 -11q-16 0 -26.5 10.5t-10.5 25.5z" />
    <glyph glyph-name="uni2116" unicode="&#x2116;" horiz-adv-x="1447" 
d="M842 745q37 0 58 -17t16 -43q-1 -13 -12 -21.5t-27 -8.5q-15 -1 -26.5 11t-9.5 28q-4 2 -14 2q-22 0 -36.5 -22t-14.5 -66v-608h-54l-471 634v-493q0 -76 -31.5 -118.5t-91.5 -42.5q-38 0 -63 20t-21 51q5 33 39 33q21 0 31.5 -17t2.5 -35q5 -6 20 -6q27 0 42.5 28.5
t15.5 77.5v549h-106v49h157l475 -642v514q0 68 30.5 105.5t90.5 37.5zM1170 209q-96 0 -155 56.5t-59 146.5q0 85 60 143t154 58h1q96 0 155.5 -56t59.5 -145q0 -90 -59.5 -146.5t-155.5 -56.5h-1zM1171 566q-74 0 -119 -43t-45 -112t45 -112.5t119 -43.5q73 0 118 43.5
t45 112.5t-45 112t-118 43zM978 78l-2 44h394v-44h-392z" />
    <glyph glyph-name="trademark" unicode="&#x2122;" horiz-adv-x="872" 
d="M353 633h-35v62h-91v-256h56v-33h-154v33h56v256h-90v-62h-34v97h292v-97zM747 439h51v-33h-142v33h51l-18 224l-90 -159h-47l-89 161l-19 -226h48v-33h-139v33h52l22 257h-47v34h88l107 -193l108 193h89v-34h-49z" />
    <glyph glyph-name="minus" unicode="&#x2212;" horiz-adv-x="565" 
d="M485 278v-45h-404v45h404z" />
    <glyph glyph-name="approxequal" unicode="&#x2248;" horiz-adv-x="557" 
d="M477 385q-6 -40 -36 -64.5t-74 -23.5q-42 1 -97 27t-79 27q-60 2 -74 -54l-36 8q4 42 32 66.5t69 24.5q35 -1 92.5 -28t87.5 -28q64 -2 79 53zM477 226q-6 -41 -36 -65t-74 -23q-42 1 -97 27t-79 27q-60 2 -74 -54l-36 8q4 42 32 66.5t69 24.5q35 -1 92.5 -28t87.5 -28
q64 -2 79 53z" />
    <glyph glyph-name="notequal" unicode="&#x2260;" horiz-adv-x="534" 
d="M452 314h-154l-34 -122h188v-44h-200l-35 -126h-42l35 126h-130v44h143l34 122h-177v44h189l40 142h41l-40 -142h142v-44z" />
    <glyph glyph-name="dotlessj" unicode="&#xf6be;" horiz-adv-x="297" 
d="M196 520v-557q0 -88 -30 -127.5t-95 -39.5q-39 0 -67.5 19t-33.5 55q-3 17 6 29t25 14q13 1 23 -7.5t11 -20.5q2 -17 -9 -25q10 -21 46 -21q39 0 55 26t16 92v519h-108v44h161z" />
    <glyph glyph-name="uniF8FF" unicode="&#xf8ff;" horiz-adv-x="1451" 
d="M691 583q0 26 17.5 44t43.5 18t44 -18t18 -44t-18 -43.5t-44 -17.5t-43.5 18t-17.5 43zM219 270h-119q0 78 2 156.5t4 117.5l3 40h100q9 -139 10 -314zM694 270q0 92 3 147h-61l3 -65q4 -4 15 -4q6 0 10.5 1t5.5 3l2 1v-74q-10 -15 -66 -15q-84 0 -84 66q0 15 2 50t2 37
h-22v79l119 30l1 -17h178q10 -64 10 -239h-118zM328 265q-92 0 -92 113q0 136 137 136q119 0 121 -117v-127h-83l-8 61q-6 -33 -23.5 -49.5t-51.5 -16.5zM1090 270h-114q0 26 1 56t1 40q0 26 -15 26q-18 0 -18 -26q0 -10 1.5 -40t1.5 -56h-114q0 78 2.5 137.5t5.5 80.5l2 21
h80q6 -45 6 -76q0 9 4.5 25t24.5 36t52 20q41 0 57.5 -24.5t18.5 -81.5zM1351 384q0 -55 -31 -87t-93 -32q-60 0 -90.5 33t-30.5 86q0 130 122 130q70 0 96.5 -34.5t26.5 -95.5zM390 375q0 26 -23 26t-23 -26q0 -30 23 -30t23 30zM1251 375q0 26 -23 26q-21 0 -21 -26
q0 -30 21 -30q23 0 23 30zM428 238h104q10 -60 10 -147q0 -73 -35 -107t-114 -34q-32 0 -54.5 4t-29.5 8l-7 5v83q20 -16 69 -16q24 0 37.5 7t15.5 14l2 7q-13 -11 -49 -11q-90 0 -90 83v13h-55l3 -65q4 -4 15 -4q6 0 10.5 1t5.5 3l2 1v-73q-10 -15 -67 -15q-82 0 -82 64
q0 46 3 88h-18v80l117 29l-1 -17l177 -1v-119q0 -27 14 -27q17 0 17 27v119zM733 243q37 0 58.5 -29t21.5 -83q0 -136 -137 -136q1 -13 1 -39h-119q0 76 2.5 146.5t5.5 103.5l2 32h78q7 -52 7 -76q2 11 6.5 25.5t24 35t49.5 20.5zM1070 129l-3 -37h-124q9 -18 49 -18
q16 0 30 3t20 6l6 3v-75q-20 -16 -78 -16q-69 0 -105 31t-36 86q0 64 32.5 97.5t93.5 33.5q54 0 84.5 -30t30.5 -84zM978 109q3 27 -17 27q-23 0 -23 -27h40zM670 72q4 0 10 1.5t16.5 11t10.5 25.5q0 22 -20 22q-22 0 -22 -32zM1075 13q0 -10 6.5 -16.5t16.5 -6.5
q9 0 15.5 6.5t6.5 16.5t-6.5 16t-15.5 6q-10 0 -16.5 -6t-6.5 -16zM1080 13q0 7 5 12.5t13 5.5q7 0 12 -5.5t5 -12.5t-5 -12.5t-12 -5.5q-8 0 -13 5.5t-5 12.5zM1108 2l-6 9q7 0 7 7t-10 7h-11v-23h5v9h5l4 -9h6zM1099 15h-6v6h5q6 0 6 -2q0 -4 -5 -4z" />
    <glyph glyph-name="i.loclTRK" horiz-adv-x="328" 
d="M164 655q-20 0 -33.5 13.5t-13.5 33.5q0 18 14 31.5t33 13.5t32.5 -13.5t13.5 -31.5q0 -20 -13.5 -33.5t-32.5 -13.5zM199 44h103v-44h-266v44h111v432h-109v44h161v-476z" />
    <glyph glyph-name="zero.zero" horiz-adv-x="734" 
d="M368 740q136 0 220.5 -100t84.5 -274t-84.5 -275t-220.5 -101q-141 0 -223.5 99.5t-82.5 276.5q0 176 82 275t224 99zM368 691q-117 0 -183.5 -85.5t-66.5 -240.5q0 -134 51 -217l369 469q-68 74 -170 74zM368 39q111 0 180 87t69 239q0 128 -51 214l-368 -470
q64 -70 170 -70z" />
    <glyph glyph-name="caroncomb.alt" 
d="M-272 611l24 210h-53l-16 -210h45z" />
    <glyph glyph-name="acutecomb.case" 
d="M-214 948l31 -50l-194 -112l-19 31z" />
    <glyph glyph-name="uni0306.case" 
d="M-432 926q7 -38 42.5 -62t83.5 -24q47 0 83.5 23.5t43.5 62.5l40 -4q-5 -56 -52 -90t-115 -34q-67 0 -115 33t-52 91z" />
    <glyph glyph-name="uni030C.case" 
d="M-120 948l19 -31l-181 -125l-181 125l18 30l162 -97z" />
    <glyph glyph-name="uni0302.case" 
d="M-137 829l-16 -30l-155 76l-152 -76l-17 30l169 103z" />
    <glyph glyph-name="uni0308.case" 
d="M-256 825q-17 0 -30 13t-13 31q0 17 13 29.5t30 12.5q18 0 30.5 -12.5t12.5 -29.5q0 -18 -12.5 -31t-30.5 -13zM-88 825q-17 0 -30 13t-13 31q0 17 13 29.5t30 12.5q18 0 30.5 -12.5t12.5 -29.5q0 -18 -12.5 -31t-30.5 -13z" />
    <glyph glyph-name="uni0307.case" 
d="M-136 816q-20 0 -33.5 13.5t-13.5 33.5q0 18 14 31.5t33 13.5t32.5 -13.5t13.5 -31.5q0 -20 -13.5 -33.5t-32.5 -13.5z" />
    <glyph glyph-name="gravecomb.case" 
d="M-364 951l184 -130l-17 -29l-195 109z" />
    <glyph glyph-name="uni030B.case" 
d="M-335 937l62 -1l-87 -148h-40zM-201 937l62 -1l-87 -148h-40z" />
    <glyph glyph-name="uni0304.case" 
d="M-440 863h306v-44h-306v44z" />
    <glyph glyph-name="uni030A.case" 
d="M-161 790q-46 0 -75 27.5t-29 70.5t29 70.5t75 27.5t75 -27.5t29 -70.5t-29 -70.5t-75 -27.5zM-161 828q26 0 44 17t18 43t-18 43t-44 17t-44 -17t-18 -43t18 -43t44 -17z" />
    <glyph glyph-name="uni0338.case" 
d="M-68 729l39 -26l-595 -738l-38 27z" />
    <glyph glyph-name="uni0337.case" 
d="M-247 464l20 -38l-291 -167l-20 37z" />
    <glyph glyph-name="tildecomb.case" 
d="M-105 912q-6 -39 -30 -59.5t-62 -19.5q-33 0 -75.5 25t-61.5 25q-42 0 -55 -42l-39 10q12 78 87 78q29 0 75 -25.5t66 -25.5q22 0 35 9t21 33z" />
    <glyph glyph-name="acute.case" horiz-adv-x="600" 
d="M386 948l31 -50l-194 -112l-19 31z" />
    <glyph glyph-name="breve.case" horiz-adv-x="600" 
d="M168 926q7 -38 42.5 -62t83.5 -24q47 0 83.5 23.5t43.5 62.5l40 -4q-5 -56 -52 -90t-115 -34q-67 0 -115 33t-52 91z" />
    <glyph glyph-name="caron.case" horiz-adv-x="600" 
d="M446 948l19 -31l-181 -125l-181 125l18 30l162 -97z" />
    <glyph glyph-name="circumflex.case" horiz-adv-x="600" 
d="M479 829l-16 -30l-155 76l-152 -76l-17 30l169 103z" />
    <glyph glyph-name="dieresis.case" horiz-adv-x="600" 
d="M88 825q-17 0 -30 13t-13 31q0 17 13 29.5t30 12.5q18 0 30.5 -12.5t12.5 -29.5q0 -18 -12.5 -31t-30.5 -13zM256 825q-17 0 -30 13t-13 31q0 17 13 29.5t30 12.5q18 0 30.5 -12.5t12.5 -29.5q0 -18 -12.5 -31t-30.5 -13z" />
    <glyph glyph-name="dotaccent.case" horiz-adv-x="536" 
d="M136 816q-20 0 -33.5 13.5t-13.5 33.5q0 18 14 31.5t33 13.5t32.5 -13.5t13.5 -31.5q0 -20 -13.5 -33.5t-32.5 -13.5z" />
    <glyph glyph-name="grave.case" horiz-adv-x="600" 
d="M214 951l184 -130l-17 -29l-195 109z" />
    <glyph glyph-name="hungarumlaut.case" horiz-adv-x="600" 
d="M265 937l62 -1l-87 -148h-40zM399 937l62 -1l-87 -148h-40z" />
    <glyph glyph-name="macron.case" horiz-adv-x="600" 
d="M160 863h306v-44h-306v44z" />
    <glyph glyph-name="ring.case" horiz-adv-x="600" 
d="M161 790q-46 0 -75 27.5t-29 70.5t29 70.5t75 27.5t75 -27.5t29 -70.5t-29 -70.5t-75 -27.5zM161 828q26 0 44 17t18 43t-18 43t-44 17t-44 -17t-18 -43t18 -43t44 -17z" />
    <glyph glyph-name="tilde.case" horiz-adv-x="600" 
d="M425 912q-6 -39 -30 -59.5t-62 -19.5q-33 0 -75.5 25t-61.5 25q-42 0 -55 -42l-39 10q12 78 87 78q30 0 75.5 -25.5t65.5 -25.5q22 0 35 9t21 33z" />
    <glyph glyph-name="IJacute" horiz-adv-x="1044" 
d="M130 817l182 131l31 -50l-194 -112zM935 898l-194 -112l-19 31l182 131zM321 730v-44h-106v-642h106v-44h-267v44h106v642h-106v44h267zM933 730l-1 -476q0 -117 -71 -190.5t-193 -73.5q-129 0 -198.5 60t-67.5 160q1 19 12.5 30.5t29.5 11.5t28.5 -11t10.5 -27
q0 -30 -26 -36q6 -61 60.5 -99.5t150.5 -38.5q95 0 152 59.5t57 154.5h1l1 429h-298v47h352z" />
    <glyph glyph-name="ijacute" horiz-adv-x="653" 
d="M576 699l-197 -106l-18 31l186 126zM296 695l-197 -106l-18 31l186 126zM199 520v-476h103v-44h-266v44h111v432h-109v44h161zM532 520v-557q0 -88 -30 -127.5t-95 -39.5q-39 0 -67.5 19t-33.5 55q-3 17 6 29t25 14q13 1 23 -7.5t11 -20.5q2 -17 -9 -25q10 -21 46 -21
q39 0 55 26t16 92v519h-108v44h161z" />
    <glyph glyph-name="slashlong" horiz-adv-x="600" 
 />
    <glyph glyph-name="slashshort" horiz-adv-x="600" 
 />
    <glyph glyph-name="stroke" horiz-adv-x="600" 
 />
    <glyph glyph-name="caronalt" horiz-adv-x="600" 
 />
    <glyph glyph-name="slashlong.case" horiz-adv-x="600" 
 />
    <glyph glyph-name="slashshort.case" horiz-adv-x="600" 
 />
    <glyph glyph-name="sign" horiz-adv-x="600" 
 />
    </font>
</defs>
</svg>
