<?xml version="1.0" standalone="no"?>
<!DOCTYPE svg PUBLIC "-//W3C//DTD SVG 1.1//EN" "http://www.w3.org/Graphics/SVG/1.1/DTD/svg11.dtd" >
<svg xmlns="http://www.w3.org/2000/svg">
<metadata></metadata>
<defs>
<font id="notcouriersansbold" horiz-adv-x="600" >
<font-face units-per-em="1000" ascent="800" descent="-200" />
<missing-glyph horiz-adv-x="500" />
<glyph unicode="&#xfb01;" d="M-10 387q0 29 24 43q10 7 43 7h38v39q0 62 39.5 104.5t96.5 42.5q62 0 99 -24q22 -14 22 -40q0 -21 -14.5 -36t-34.5 -15q-7 0 -34.5 8t-34.5 8q-16 0 -27.5 -14.5t-11.5 -33.5v-39h33q32 0 45 -9q21 -16 21 -41q0 -27 -24 -43q-11 -7 -42 -7h-33v-337h-100v337h-38 q-33 0 -46 10q-21 15 -21 40zM331 387q0 29 24 43q11 7 42 7h120v-437h-100v337h-20q-33 0 -45 10q-21 15 -21 40zM382 519v105h118v-105h-118z" />
<glyph unicode="&#xfb02;" d="M-12 387q0 29 24 43q10 7 43 7h37v38q0 61 39 104.5t94 43.5q64 0 109 -28q15 28 49 28h130v-623h-100v523h-34q-19 0 -36 12q-15 -27 -40 -27q-9 0 -29 6q-27 9 -42 9q-40 0 -40 -48v-38h33q32 0 45 -9q21 -16 21 -41q0 -27 -24 -43q-11 -7 -42 -7h-33v-337h-100v337 h-37q-34 0 -46 10q-21 15 -21 40z" />
<glyph />
<glyph />
<glyph unicode="&#xd;" />
<glyph unicode=" " />
<glyph unicode="!" d="M220 558q0 35 23 57.5t58 22.5t57.5 -23t22.5 -57q0 -7 -2 -33l-29 -297q-5 -49 -49 -49q-21 0 -34.5 13t-15.5 36l-29 297q-2 24 -2 33zM225 51q0 27 19.5 46.5t47.5 19.5h17q28 0 47 -19t19 -47t-19 -47t-47 -19h-17q-28 0 -47.5 19.5t-19.5 46.5z" />
<glyph unicode="&#x22;" d="M136 602h128l-31 -254q-3 -20 -10 -28t-22 -8q-27 0 -31 35zM336 602h128l-31 -254q-3 -20 -10 -28t-22 -8q-27 0 -31 35z" />
<glyph unicode="#" d="M62 189q0 28 24 42q11 7 42 7h33l7 106h-19q-33 0 -46 9q-21 16 -21 41q0 29 24 43q11 7 43 7h26l12 168q1 30 11 44q16 19 40 19q21 0 35.5 -15t14.5 -35v-2q-2 -35 -6.5 -99.5t-5.5 -79.5h71l12 168q1 32 11 44q16 19 40 19q19 0 34.5 -14.5t15.5 -30.5v-3 q-3 -35 -7.5 -102t-5.5 -81h25q32 0 45 -9q21 -16 21 -41q0 -29 -24 -43q-13 -7 -42 -7h-32l-8 -106h19q34 0 46 -9q21 -16 21 -41q0 -28 -24 -42q-13 -7 -42 -7h-27l-11 -168q-2 -29 -15.5 -46t-36.5 -17q-13 0 -24.5 7t-18 18t-6.5 23v3l2 19l11 161h-72l-12 -168 q0 -63 -50 -63q-22 0 -36 14.5t-14 37.5q0 11 1 18l11 161h-26q-32 0 -45 9q-21 16 -21 41zM261 238h72l7 106h-71z" />
<glyph unicode="$" d="M83 174q0 24 14 39.5t36 15.5q20 0 36 -14q7 -8 15 -35q6 -23 40.5 -39.5t75.5 -16.5q49 0 81 22t32 54q0 26 -19 41.5t-61 23.5l-74 15q-74 15 -113 54.5t-39 100.5q0 59 40.5 102.5t104.5 54.5v26q0 32 9 46q17 20 41 20q28 0 42 -24q7 -10 7 -42v-26q50 -9 67 -18 q35 -19 56.5 -49t21.5 -58q0 -22 -15 -36t-35 -14q-43 0 -52 42q-2 14 -27.5 25t-56.5 11q-45 0 -72 -17t-27 -45q0 -41 75 -56l65 -14q87 -18 124 -55q42 -42 42 -109q0 -65 -44 -111t-122 -61v-83q0 -35 -9 -46q-16 -21 -40 -21q-29 0 -43 24q-7 11 -7 43v83q-37 8 -79 25 q-34 14 -62 50.5t-28 71.5z" />
<glyph unicode="%" d="M80 241q0 21 30 31l362 118q12 4 20 4q11 0 20 -9.5t9 -22.5q0 -23 -30 -31l-362 -118q-14 -4 -20 -4q-11 0 -20 9.5t-9 22.5zM89 478q0 57 41 98t98 41q59 0 99.5 -41t40.5 -100q0 -56 -41 -97t-98 -41q-58 0 -99 41t-41 99zM154 478q0 -31 22 -53t52 -22q31 0 53 22 t22 52q0 31 -21.5 53t-53.5 22q-30 0 -52 -22t-22 -52zM229 125q0 57 41 98t98 41q59 0 99.5 -41t40.5 -100q0 -56 -41 -97t-99 -41q-57 0 -98 41t-41 99zM294 125q0 -31 22 -53t53 -22q30 0 52 22t22 52q0 32 -21.5 53.5t-53.5 21.5q-30 0 -52 -22t-22 -52z" />
<glyph unicode="&#x26;" d="M75 144q0 103 96 159q-34 58 -34 96q0 61 45.5 106t106.5 45q18 0 38 -4.5t52.5 -26.5t55.5 -59l-82 -44q-38 34 -63 34q-22 0 -37.5 -14.5t-15.5 -35.5q0 -17 28 -57l100 -145l23 82h99q-25 -129 -53 -180l66 -100h-119l-11 15q-41 -29 -113 -29q-83 0 -132.5 43 t-49.5 115zM175 144q0 -58 82 -58q31 0 55 14l-84 120q-53 -24 -53 -76z" />
<glyph unicode="'" d="M236 602h128l-31 -254q-3 -20 -10 -28t-22 -8q-27 0 -31 35z" />
<glyph unicode="(" d="M264 243q0 80 30.5 171t85.5 173q17 27 28.5 36t28.5 9q22 0 36.5 -14.5t14.5 -34.5q0 -15 -12 -34q-101 -162 -101 -309q0 -146 101 -310q12 -19 12 -34q0 -20 -14.5 -34.5t-36.5 -14.5q-18 0 -31 11.5t-35 46.5q-107 170 -107 338z" />
<glyph unicode=")" d="M117 -104q0 15 12 34q101 162 101 309q0 146 -101 310q-12 19 -12 34q0 20 14.5 34.5t36.5 14.5q18 0 31 -11.5t35 -46.5q107 -170 107 -338q0 -80 -30.5 -171.5t-85.5 -173.5q-17 -26 -28.5 -35t-28.5 -9q-22 0 -36.5 14.5t-14.5 34.5z" />
<glyph unicode="*" d="M83 452q0 20 14 35t33 15q10 0 34 -7l86 -28v89q0 33 9 45q16 21 41 21q29 0 43 -24q7 -13 7 -42v-89l86 28q24 7 33 7q19 0 33.5 -15t14.5 -35q0 -37 -50 -52l-86 -28l52 -71q19 -27 19 -43q0 -20 -15 -35t-35 -15q-16 0 -25 6.5t-25 27.5l-52 72l-52 -72 q-15 -21 -25 -27.5t-25 -6.5q-20 0 -35 15t-15 35q0 15 19 43l52 71l-86 28q-28 8 -39 20t-11 32z" />
<glyph unicode="+" d="M42 280q0 29 24 43q10 7 42 7h142v164q0 34 10 45q14 21 40 21q29 0 43 -24q7 -11 7 -42v-164h141q33 0 46 -9q21 -16 21 -41q0 -29 -24 -43q-11 -7 -43 -7h-141v-164q0 -32 -9 -45q-16 -21 -41 -21q-29 0 -43 24q-7 13 -7 42v164h-142q-33 0 -45 9q-21 16 -21 41z" />
<glyph unicode="," d="M147 -130q0 8 3 19l69 245h132l-141 -268q-12 -24 -32 -24q-13 0 -22 8.5t-9 19.5z" />
<glyph unicode="-" d="M42 279q0 27 24 43q10 7 42 7h384q33 0 46 -9q20 -15 20 -41q0 -29 -24 -43q-11 -7 -42 -7h-384q-33 0 -45 9q-21 16 -21 41z" />
<glyph unicode="." d="M225 51q0 27 19.5 46.5t46.5 19.5h18q28 0 47 -19t19 -47t-19 -47t-47 -19h-18q-27 0 -46.5 19.5t-19.5 46.5z" />
<glyph unicode="/" d="M83 -65q0 14 12 38l321 678q11 25 22 34.5t29 9.5q20 0 35 -14.5t15 -33.5q0 -13 -12 -37l-320 -679q-11 -25 -22.5 -34.5t-29.5 -9.5q-20 0 -35 14.5t-15 33.5z" />
<glyph unicode="0" d="M83 264v95q0 143 78 224q52 55 139 55t139 -55q78 -81 78 -224v-95q0 -143 -78 -224q-52 -55 -139 -55t-139 55q-78 81 -78 224zM183 257q0 -78 32 -125t85 -47t85 47t32 125v109q0 78 -32 125t-85 47t-85 -47t-32 -125v-109z" />
<glyph unicode="1" d="M85 532q0 22 11.5 32.5t41.5 18.5l212 55v-638h-100v509l-87 -23q-23 -6 -32 -6q-19 0 -32.5 15t-13.5 37z" />
<glyph unicode="2" d="M54 0v105q184 152 232 196q75 68 96 94.5t21 52.5q0 38 -33 64t-82 26q-62 0 -97 -41q-11 -13 -22 -46q-9 -29 -45 -29q-20 0 -35 14.5t-15 33.5q0 24 17.5 56.5t42.5 55.5q62 56 156 56q91 0 152 -55.5t61 -138.5q0 -49 -24.5 -87.5t-98.5 -105.5q-26 -24 -173 -151h301 v-100h-454z" />
<glyph unicode="3" d="M66 70q0 21 14.5 35.5t35.5 14.5q13 0 32 -12q35 -23 120 -23q95 0 133 34q28 26 28 64q0 28 -20.5 52.5t-55.5 38.5q-25 11 -77 13q-52 3 -52 46q0 22 14.5 36t37.5 14h40q37 0 64 23.5t27 55.5q0 35 -30 55.5t-82 20.5q-41 0 -66 -10t-49 -36q-15 -15 -36 -15 q-20 0 -34.5 15t-14.5 35q0 43 63 77t143 34q99 0 156 -58q50 -48 50 -116q0 -41 -21 -71.5t-70 -59.5q113 -55 113 -151q0 -92 -74 -150q-63 -47 -184 -47q-92 0 -148.5 23.5t-56.5 61.5z" />
<glyph unicode="4" d="M75 138v83l241 401h131v-384q61 0 61 -50q0 -48 -61 -50v-138h-100v138h-272zM197 238h150v242z" />
<glyph unicode="5" d="M66 84q0 20 15 34.5t35 14.5q17 0 36 -15q23 -19 49.5 -26t75.5 -7q78 0 115 28.5t37 87.5q0 55 -31 89t-81 34q-54 0 -120 -34q-17 -8 -28 -8q-22 0 -36 16t-14 40v284h302q32 0 46 -9q20 -17 20 -41q0 -29 -24 -43q-10 -7 -42 -7h-202v-115q56 17 99 17q91 0 151 -63 t60 -159q0 -89 -55 -149q-62 -68 -196 -68q-90 0 -151 28.5t-61 70.5z" />
<glyph unicode="6" d="M105 285q0 132 77 229q101 124 241 124q53 0 85 -18t32 -47q0 -21 -15 -36t-36 -15q-14 0 -35 8q-14 5 -25 5q-79 0 -141.5 -59.5t-79.5 -151.5q36 38 67.5 54t69.5 16q79 0 134.5 -60t55.5 -145q0 -88 -52 -145q-53 -59 -152 -59q-125 0 -182 102q-44 81 -44 198z M218 209q11 -65 39 -94.5t77 -29.5q47 0 74 28t27 77q0 43 -28 73.5t-69 30.5q-32 0 -66 -24t-54 -61z" />
<glyph unicode="7" d="M75 522v100h433v-99l-159 -475q-10 -27 -21.5 -38t-30.5 -11q-20 0 -35.5 14.5t-15.5 33.5q0 10 7 34l150 441h-328z" />
<glyph unicode="8" d="M83 165q0 93 97 154q-88 59 -88 136t60.5 130t147.5 53q86 0 147 -53t61 -128q0 -79 -88 -138q97 -61 97 -154q0 -80 -60.5 -130t-157.5 -50q-96 0 -156 50t-60 130zM183 173q0 -38 33 -63t84 -25t84 24.5t33 62.5t-34 64.5t-83 26.5q-48 0 -82.5 -26.5t-34.5 -63.5z M192 451q0 -38 30.5 -62.5t77.5 -24.5t77.5 24t30.5 62q0 39 -30 63.5t-78 24.5t-78 -24.5t-30 -62.5z" />
<glyph unicode="9" d="M106 50q0 21 15 36t36 15q14 0 35 -8q14 -5 25 -5q79 0 141.5 59.5t79.5 151.5q-66 -70 -136 -70q-79 0 -135 60t-56 145q0 88 52 145q53 59 152 59q125 0 182 -102q44 -80 44 -198q0 -132 -77 -229q-101 -124 -241 -124q-53 0 -85 18t-32 47zM211 433q0 -43 28 -73.5 t69 -30.5q32 0 66 24t54 61q-11 65 -39 94.5t-77 29.5q-47 0 -74 -28t-27 -77z" />
<glyph unicode=":" d="M225 51q0 27 19.5 46.5t46.5 19.5h18q28 0 47 -19t19 -47t-19 -47t-47 -19h-18q-27 0 -46.5 19.5t-19.5 46.5zM225 370q0 28 19.5 47.5t46.5 19.5h18q28 0 47 -19.5t19 -47.5t-19 -47t-47 -19h-18q-27 0 -46.5 19.5t-19.5 46.5z" />
<glyph unicode=";" d="M147 -130q0 8 3 19l69 245h132l-141 -268q-12 -24 -32 -24q-13 0 -22 8.5t-9 19.5zM201 371q0 29 20.5 47.5t54.5 18.5t54.5 -18t20.5 -49q0 -30 -20.5 -48t-54.5 -18t-54.5 18.5t-20.5 48.5z" />
<glyph unicode="&#x3c;" d="M42 280l430 212q18 9 30 9q16 0 29 -14t13 -32q0 -26 -32 -43l-261 -133l261 -136q32 -17 32 -43q0 -17 -13 -31.5t-29 -14.5q-14 0 -30 9z" />
<glyph unicode="=" d="M42 188q0 29 24 43q10 7 42 7h384q32 0 45 -9q21 -16 21 -41q0 -29 -24 -43q-11 -7 -42 -7h-384q-34 0 -45 10q-21 15 -21 40zM42 372q0 29 24 43q10 7 42 7h384q32 0 45 -9q21 -16 21 -41q0 -29 -24 -43q-11 -7 -42 -7h-384q-34 0 -45 10q-21 15 -21 40z" />
<glyph unicode="&#x3e;" d="M56 100q0 25 32 42l261 133l-261 137q-32 15 -32 41q0 18 13 32.5t29 14.5q14 0 30 -9l430 -217l-430 -212q-18 -9 -30 -9q-16 0 -29 14.5t-13 32.5z" />
<glyph unicode="?" d="M104 539q72 35 114 47t90 12q93 0 151 -52.5t58 -136.5q0 -61 -36.5 -101t-127.5 -80q-6 -54 -50 -54q-29 0 -43 24q-7 13 -7 42v56q96 37 130 61.5t34 56.5q0 37 -30 60.5t-78 23.5q-55 0 -105 -24zM227 51q0 27 19.5 46.5t47.5 19.5h17q28 0 47 -19t19 -47t-19 -47 t-47 -19h-17q-28 0 -47.5 19.5t-19.5 46.5z" />
<glyph unicode="@" d="M76 154v169q0 129 63.5 213t161.5 84q81 0 133 -54t52 -137v-281q23 -10 23 -35q0 -41 -55 -41h-47v3q-23 -3 -33 -3q-64 0 -110 46t-46 108q0 70 52.5 117.5t136.5 53.5v32q0 50 -29.5 81t-75.5 31q-63 0 -105 -64t-42 -160v-156q0 -115 51 -185q34 -50 99 -50 q73 0 103 32q17 17 31 17q17 0 28.5 -12t11.5 -29q0 -35 -52.5 -60.5t-124.5 -25.5q-118 0 -179 107q-47 85 -47 199zM297 225q0 -31 24 -51.5t60 -20.5q12 0 26 2v161q-50 -5 -80 -29.5t-30 -61.5z" />
<glyph unicode="A" d="M5 0l237 583h112l240 -583h-116l-62 158h-238l-62 -158h-111zM218 258h157l-78 192z" />
<glyph unicode="B" d="M94 0v583h238q85 0 140.5 -47t55.5 -118q0 -64 -63 -113q106 -53 106 -145q0 -72 -54 -116t-143 -44h-280zM194 100h175q102 0 102 54q0 40 -43 66q-37 22 -99 22h-135v-142zM194 342h113q54 0 87.5 21.5t33.5 55.5q0 30 -27 47t-74 17h-133v-141z" />
<glyph unicode="C" d="M33 249v66q0 120 78 201t194 81q40 0 71 -7.5t71 -26.5q21 -10 40.5 -26.5t33 -35.5t21 -39.5t7.5 -38.5q0 -25 -14 -40.5t-36 -15.5q-21 0 -35 14q-9 9 -14 39q-4 18 -13.5 29.5t-30.5 23.5q-43 24 -97 24q-50 0 -90.5 -23.5t-63 -65t-22.5 -93.5v-64q0 -75 53.5 -120 t143.5 -45q72 0 110 23q11 6 38 34q16 16 36 16t35 -15t15 -35q0 -36 -53 -73q-69 -50 -184 -50q-84 0 -151 34t-105 94t-38 135z" />
<glyph unicode="D" d="M74 0v583h218q109 0 183.5 -80t74.5 -198v-47q0 -110 -70 -183q-71 -75 -196 -75h-210zM174 100h111q45 0 73 10t51 34q41 45 41 117v46q0 72 -45 125q-44 51 -121 51h-110v-383z" />
<glyph unicode="E" d="M94 0v583h434v-100h-334v-141h184v-99h-184v-143h356v-100h-456z" />
<glyph unicode="F" d="M94 0v583h456v-100h-356v-141h184v-99h-184v-243h-100z" />
<glyph unicode="G" d="M33 246v71q0 119 84 203q78 77 200 77q83 0 145 -32q28 -14 58.5 -48t30.5 -72q0 -19 -10 -37q-11 -21 -41 -21q-22 0 -35 15q-6 7 -14 38q-8 26 -43 41.5t-90 15.5q-85 0 -132 -47q-53 -53 -53 -133v-64q0 -85 45 -123q52 -44 147 -44q69 0 125 25v69h-112v100l212 -1 v-231q-67 -35 -114 -48.5t-105 -13.5q-155 0 -232 79q-66 69 -66 181z" />
<glyph unicode="H" d="M95 0v584h100v-243h214v243h100v-584h-100v241h-214v-241h-100z" />
<glyph unicode="I" d="M250 0v584h100v-584h-100z" />
<glyph unicode="J" d="M54 51l100 66q69 -31 117 -31q57 0 95 36q16 16 20 29t4 47v385h100v-396q0 -49 -14.5 -81.5t-49.5 -63.5q-65 -56 -157 -56q-84 0 -215 65z" />
<glyph unicode="K" d="M94 0v584h100v-250l291 249h36h103l-289 -253q54 -29 113.5 -118t82.5 -212h-105q-35 107 -80.5 176t-91.5 83l-60 -51v-208h-100z" />
<glyph unicode="L" d="M156 0v583h100v-483h315v-100h-415z" />
<glyph unicode="M" d="M42 0v583h123l138 -297l135 297h124v-583h-100v389l-111 -251h-91q-118 250 -118 251v-389h-100z" />
<glyph unicode="N" d="M73 0v583h100l258 -392v392h100v-583h-99l-259 394v-394h-100z" />
<glyph unicode="O" d="M21 292q0 126 82 215.5t197 89.5q103 0 185 -77q94 -90 94 -233q0 -123 -82.5 -212t-196.5 -89q-116 0 -197.5 89.5t-81.5 216.5zM121 292q0 -85 52.5 -145.5t126.5 -60.5q73 0 126 60t53 143q0 86 -52.5 147t-126.5 61q-73 0 -126 -60.5t-53 -144.5z" />
<glyph unicode="P" d="M94 0v583h218q95 0 156 -53t61 -136q0 -73 -50 -128q-33 -37 -75 -51.5t-112 -14.5h-98v-200h-100zM194 300h118q52 0 81.5 24.5t29.5 66.5q0 43 -29.5 67.5t-81.5 24.5h-118v-183z" />
<glyph unicode="Q" d="M21 292q0 126 82 215.5t197 89.5t197 -89t82 -214q0 -83 -39.5 -153.5t-110.5 -113.5q-56 -34 -140 -34q-10 0 -18 1l-4 -24q30 5 51 5q38 0 84 -13q27 -7 41 -7q19 0 43 15q26 17 40 17q22 0 36.5 -14.5t14.5 -35.5q0 -29 -38 -51q-51 -31 -95 -31q-19 0 -30 3t-47 17 q-22 8 -48 8q-44 0 -126 -21q-20 -5 -28 -5q-19 0 -33.5 15.5t-14.5 36.5q0 19 20 38l62 60q-56 32 -84.5 57t-49.5 60q-44 77 -44 168zM121 291q0 -84 53 -145t126 -61t126 60t53 143q0 87 -52.5 148t-126.5 61t-126.5 -60.5t-52.5 -145.5z" />
<glyph unicode="R" d="M94 0v583h208q97 0 158.5 -49.5t61.5 -128.5q0 -92 -108 -151q59 -55 98 -113.5t78 -140.5h-116q-37 72 -94.5 141.5t-89.5 80.5h-96v-222h-100zM194 322h76q63 0 104.5 24.5t41.5 61.5q0 32 -31 53.5t-79 21.5h-112v-161z" />
<glyph unicode="S" d="M62 145q0 18 9 34q12 20 41 20q22 0 36 -14q5 -5 7 -9.5t8 -24.5q5 -18 25.5 -33t50.5 -23.5t63 -8.5q36 0 66.5 10t48 27.5t17.5 38.5q0 33 -36 53q-24 13 -105 27q-85 14 -129 39q-25 14 -43.5 36t-28.5 48.5t-10 54.5q0 76 62 126.5t155 50.5q16 0 28.5 -1t24.5 -3.5 t24.5 -6.5t24.5 -9t28 -13q38 -19 63 -56.5t25 -73.5q0 -21 -9 -37q-12 -21 -40 -21q-22 0 -36 14q-7 8 -14 40q-7 30 -39.5 48.5t-79.5 18.5t-80 -22t-33 -54q0 -16 10.5 -31.5t26.5 -23.5q23 -12 100 -26q114 -21 156 -55q59 -47 59 -125t-63 -126t-166 -48q-73 0 -156 39 q-35 16 -63 51t-28 69z" />
<glyph unicode="T" d="M42 483v101h516v-101h-209v-483h-100v483h-207z" />
<glyph unicode="U" d="M71 205v378h100v-387q0 -46 38 -78t91 -32t91 32t38 78v387h100v-378q0 -107 -84 -170q-64 -49 -145 -49t-145 49q-84 65 -84 170z" />
<glyph unicode="V" d="M5 583h112l186 -439l187 440h106l-248 -584h-99z" />
<glyph unicode="W" d="M23 583h103l49 -372l76 226h104l76 -226l48 372h97l-73 -583h-110l-93 277l-91 -277h-111z" />
<glyph unicode="X" d="M-15 0l250 298l-245 285h128l182 -208l178 208h128l-242 -286l252 -297h-129l-186 220l-186 -220h-130z" />
<glyph unicode="Y" d="M15 583h120l165 -235l163 235h120l-233 -338v-245h-100v245z" />
<glyph unicode="Z" d="M73 0v100l302 383h-279v100h408v-97l-303 -386h327v-100h-455z" />
<glyph unicode="[" d="M250 -148v775h158q32 0 46 -9q20 -15 20 -41q0 -29 -24 -43q-11 -7 -42 -7h-58v-575h59q32 0 45 -9q21 -16 21 -41q0 -27 -24 -43q-11 -7 -42 -7h-159z" />
<glyph unicode="\" d="M83 647q0 19 15 33.5t35 14.5q18 0 29 -9.5t22 -34.5l321 -678q12 -24 12 -38q0 -19 -15 -33.5t-35 -14.5q-18 0 -29 9.5t-23 34.5l-320 679q-12 24 -12 37z" />
<glyph unicode="]" d="M125 577q0 27 24 43q11 7 42 7h159v-775h-158q-32 0 -46 9q-20 15 -20 41q0 29 24 43q11 7 42 7h58v575h-59q-32 0 -45 9q-21 16 -21 41z" />
<glyph unicode="^" d="M83 375q0 18 22 44l194 233l196 -233q22 -26 22 -44q0 -20 -15 -35t-35 -15q-14 0 -23.5 5.5t-25.5 24.5l-119 139l-117 -138q-17 -20 -25.5 -25.5t-23.5 -5.5q-20 0 -35 15t-15 35z" />
<glyph unicode="_" d="M-12 -75h624v-50h-624v50z" />
<glyph unicode="`" d="M125 660q0 15 10.5 25.5t26.5 10.5q12 0 32 -16l133 -111q23 -19 23 -37q0 -14 -11 -25t-26 -11q-12 0 -32 16l-133 112q-23 18 -23 36z" />
<glyph unicode="a" d="M42 119q0 49 39 93q68 76 203 76q45 0 104 -10v23q0 49 -93 49q-51 0 -116 -17q-25 -6 -40 -6q-21 0 -35 14.5t-14 36.5q0 32 30 42q85 30 172 30q92 0 144.5 -39t52.5 -109v-302h-101v23q-75 -39 -166 -39q-74 0 -127 39.5t-53 95.5zM148 123q0 -17 22 -28t54 -11 q82 0 165 51v50q-63 11 -111 11q-51 0 -90.5 -22t-39.5 -51z" />
<glyph unicode="b" d="M74 0v624h100v-223q63 50 150 50q109 0 177 -65q70 -67 70 -168q0 -99 -70 -167q-68 -65 -176 -65q-80 0 -151 49v-35h-100zM174 220q0 -59 41.5 -96.5t107.5 -37.5q68 0 109 40q39 39 39 93q0 51 -39 92q-41 40 -109 40q-70 0 -110 -40q-39 -39 -39 -91z" />
<glyph unicode="c" d="M54 207q0 107 71.5 175t184.5 68q80 0 144 -30q35 -17 60.5 -53t25.5 -70q0 -25 -14 -40.5t-36 -15.5t-36 14q-9 7 -15 34q-5 24 -23 36q-41 25 -106 25q-74 0 -116 -43q-40 -40 -40 -100q0 -123 176 -123q66 0 105 13q14 4 21.5 9t28.5 22q13 12 30 12q20 0 35 -15 t15 -36q0 -40 -64 -73q-66 -32 -178 -32q-73 0 -122 16.5t-86 52.5q-61 61 -61 154z" />
<glyph unicode="d" d="M33 219q0 100 70 167q68 65 178 65q87 0 150 -50v223h100v-624h-100v35q-72 -49 -151 -49q-109 0 -177 65q-70 68 -70 168zM133 219q0 -52 39 -93q41 -40 110 -40t110 40q39 39 39 91q0 55 -39 94q-41 40 -111 40q-69 0 -109 -40q-39 -39 -39 -92z" />
<glyph unicode="e" d="M33 216q0 99 74.5 166.5t183.5 67.5q112 0 185.5 -68t73.5 -171v-39h-408q34 -88 164 -88q56 0 163 28q20 5 33 5q20 0 34 -14.5t14 -35.5q0 -29 -35 -45q-34 -15 -99.5 -26.5t-118.5 -11.5q-116 0 -190 65t-74 167zM145 260h294q-12 41 -52 65.5t-95 24.5t-95.5 -25 t-51.5 -65z" />
<glyph unicode="f" d="M86 387q0 29 24 43q10 7 43 7h46v37q0 69 52 109t141 40q80 0 137 -16q42 -11 42 -47q0 -22 -13.5 -36.5t-33.5 -14.5q-10 0 -28 3q-62 11 -113 11q-84 0 -84 -49v-37h151q32 0 45 -9q21 -16 21 -41q0 -27 -24 -43q-11 -7 -42 -7h-151v-337h-100v337h-47q-34 0 -45 10 q-21 15 -21 40z" />
<glyph unicode="g" d="M33 218q0 100 67.5 166.5t168.5 66.5q82 0 141 -50v36h100v-457q0 -79 -54.5 -132t-136.5 -53h-112q-34 0 -45 10q-21 15 -21 40q0 29 24 43q11 7 42 7h109q43 0 68.5 23t25.5 62v55q-66 -49 -141 -49q-101 0 -168.5 66.5t-67.5 165.5zM133 219q0 -55 40.5 -94t97.5 -39 t98 38.5t41 92.5q0 56 -40.5 95t-98.5 39q-57 0 -97.5 -38.5t-40.5 -93.5z" />
<glyph unicode="h" d="M95 0l1 624h99v-235q60 61 137 61q80 0 128.5 -45.5t48.5 -120.5v-284h-100v271q0 26 -4 38t-17 22q-23 19 -67 19q-35 0 -59 -13t-67 -54v-283h-100z" />
<glyph unicode="i" d="M105 387q0 29 24 43q11 7 43 7h178v-437h-100v337h-78q-35 0 -46 10q-21 15 -21 40zM218 518v105h118v-105h-118z" />
<glyph unicode="j" d="M117 -155q0 28 24 43q11 7 42 7h111q43 0 68.5 23t25.5 62v357h-202q-34 0 -45 10q-21 15 -21 40q0 29 24 43q10 7 42 7h302v-457q0 -79 -54.5 -132t-136.5 -53h-114q-34 0 -45 10q-21 15 -21 40zM311 518v105h119v-105h-119z" />
<glyph unicode="k" d="M115 0v624h100v-337l188 150h148l-240 -196l274 -241h-151l-201 178l-18 -14v-164h-100z" />
<glyph unicode="l" d="M105 574q0 29 24 43q11 7 43 7h178v-624h-100v524h-78q-35 0 -46 10q-21 14 -21 40z" />
<glyph unicode="m" d="M40 0v437h101v-24q46 37 85 37q57 0 102 -49q45 49 104 49q56 0 93.5 -37.5t37.5 -93.5v-319h-100v311q0 22 -7.5 30.5t-27.5 8.5t-35.5 -9t-40.5 -36v-305h-100v311q0 21 -8 30t-27 9q-36 0 -76 -45v-305h-101z" />
<glyph unicode="n" d="M96 0v437h99v-48q36 34 66 47.5t71 13.5q68 0 119 -37q59 -44 59 -131v-282h-100v278q0 72 -90 72q-35 0 -62.5 -15t-62.5 -53v-282h-99z" />
<glyph unicode="o" d="M42 217q0 99 75 166t186 67q106 0 180.5 -68t74.5 -165q0 -98 -75 -165.5t-183 -67.5t-183 67.5t-75 165.5zM142 217q0 -56 45.5 -94.5t112.5 -38.5t112.5 38.5t45.5 94.5t-45.5 94.5t-110.5 38.5q-68 0 -114 -38t-46 -95z" />
<glyph unicode="p" d="M74 -205v642h100v-45q68 58 153 58q105 0 174.5 -64.5t69.5 -161.5q0 -92 -69 -153t-173 -61q-82 0 -155 56v-271h-100zM174 231q0 -53 41.5 -87t107.5 -34q65 0 106.5 34t41.5 86q0 25 -13 50t-35 41q-38 29 -100 29q-63 0 -101 -29q-22 -16 -35 -41t-13 -49z" />
<glyph unicode="q" d="M33 224q0 97 69.5 161.5t174.5 64.5q47 0 82 -13t72 -45v45h100v-642h-100v271q-73 -56 -156 -56q-104 0 -173 61t-69 153zM133 230q0 -55 48 -91q38 -29 101 -29t101 29q22 16 35 41t13 49q0 53 -41.5 87t-108.5 34q-60 0 -100 -29q-48 -36 -48 -91z" />
<glyph unicode="r" d="M178 0v437h100v-65q60 45 95 61t72 16q53 0 98 -38q28 -23 28 -47q0 -21 -15 -36t-35 -15q-18 0 -39 18t-39 18q-24 0 -58.5 -21.5t-106.5 -80.5v-247h-100z" />
<glyph unicode="s" d="M73 116q0 22 15.5 36.5t35.5 14.5q38 0 51 -44q44 -39 125 -39q48 0 82.5 13t34.5 30q0 6 -4 13t-12 12.5t-18 9.5q-23 9 -92 17q-70 8 -114 24t-64.5 43t-20.5 67q0 60 58 98.5t148 38.5q75 0 129 -26q34 -16 56.5 -40.5t22.5 -51.5q0 -16 -9 -31q-14 -20 -41 -20 q-30 0 -47 31l-5 9q-41 29 -103 29q-38 0 -68.5 -10.5t-30.5 -24.5t26 -24q15 -5 84 -15q102 -14 145 -38q33 -18 51.5 -48t18.5 -65q0 -40 -28.5 -72.5t-79.5 -50.5t-115 -18q-81 0 -148 29q-18 8 -33.5 20t-26 25.5t-17 28.5t-6.5 29z" />
<glyph unicode="t" d="M13 387q0 29 24 43q11 7 42 7h35v88q0 33 10 46q15 20 40 20q29 0 43 -24q7 -11 7 -42v-88h181q32 0 46 -9q20 -17 20 -41q0 -29 -24 -43q-11 -7 -42 -7h-181v-196q0 -28 8 -37q18 -20 78 -20q79 0 146 34q21 11 35 11q20 0 34 -15t14 -36q0 -18 -11 -29.5t-39 -24.5 q-36 -17 -88.5 -28.5t-91.5 -11.5q-85 0 -135 37t-50 101v215h-35q-33 0 -46 10q-20 15 -20 40z" />
<glyph unicode="u" d="M95 156v281h100v-278q0 -72 88 -72q38 0 63 13.5t64 54.5v282h100v-437h-100v48q-37 -35 -66.5 -48t-70.5 -13q-70 0 -119 37q-59 44 -59 132z" />
<glyph unicode="v" d="M30 437h112l160 -315l157 315h109l-217 -437h-104z" />
<glyph unicode="w" d="M29 437h106l64 -252l60 158h88l61 -158l66 252h99l-109 -437h-92l-71 181l-68 -181h-94z" />
<glyph unicode="x" d="M-38 0l258 228l-246 209h145l180 -144l177 144h149l-252 -210l272 -227h-148l-198 161l-192 -161h-145z" />
<glyph unicode="y" d="M18 437h115l165 -323l174 323h107l-334 -642h-109l106 208z" />
<glyph unicode="z" d="M85 0v83l261 254h-249v100h409v-81l-262 -256h275v-100h-434z" />
<glyph unicode="{" d="M167 240q0 45 49 50q19 2 25.5 10t6.5 28v164q0 53 38.5 92t90.5 39q25 0 40.5 -13.5t15.5 -36.5q0 -21 -13.5 -35.5t-35.5 -15.5q-21 -1 -28.5 -9t-7.5 -28v-157q0 -32 -6 -49.5t-23 -38.5q18 -22 23.5 -40.5t5.5 -57.5v-157q0 -20 7.5 -27.5t28.5 -9.5 q22 -1 35.5 -15.5t13.5 -35.5q0 -23 -15 -36.5t-40 -13.5q-53 0 -91.5 39t-38.5 92v173q0 21 -6 28.5t-26 9.5q-49 6 -49 51z" />
<glyph unicode="|" d="M250 -87v643q0 33 9 46q17 20 41 20q29 0 43 -24q7 -13 7 -42v-643q0 -32 -9 -45q-16 -21 -41 -21q-27 0 -43 24q-7 11 -7 42z" />
<glyph unicode="}" d="M167 -103q0 21 13.5 35.5t35.5 15.5q21 1 28.5 9t7.5 28v157q0 32 6 49.5t23 38.5q-18 22 -23.5 40.5t-5.5 57.5v157q0 20 -7.5 27.5t-28.5 9.5q-22 1 -35.5 15.5t-13.5 35.5q0 23 15 36.5t40 13.5q53 0 91.5 -39t38.5 -92v-173q0 -21 6 -28.5t26 -9.5q49 -6 49 -51 t-49 -50q-19 -2 -25.5 -10t-6.5 -28v-164q0 -53 -38.5 -92t-90.5 -39q-25 0 -40.5 13.5t-15.5 36.5z" />
<glyph unicode="~" d="M62 252q0 27 39 70q55 63 112 63q32 0 59 -15.5t78 -62.5q28 -23 39 -23q14 0 49 46q15 20 25 27t25 7q20 0 35 -15t15 -35q0 -25 -41 -73q-52 -62 -106 -62t-137 75q-32 27 -42 27q-13 0 -47 -42q-20 -24 -29.5 -31t-22.5 -7q-20 0 -35.5 15.5t-15.5 35.5z" />
<glyph unicode="&#xa0;" />
<glyph unicode="&#xa1;" d="M220 -147q0 9 2 33l29 297q5 49 49 49q21 0 34.5 -13t15.5 -36l29 -297q2 -26 2 -33q0 -35 -23 -57.5t-58 -22.5q-34 0 -57 22.5t-23 57.5zM225 360q0 28 19.5 47t47.5 19h17q28 0 47 -19t19 -47t-19 -47t-47 -19h-17q-28 0 -47.5 19t-19.5 47z" />
<glyph unicode="&#xa2;" d="M83 312q0 73 47 130t121 75v77q0 34 10 46q15 21 40 21q29 0 43 -24q7 -11 7 -43v-67q42 -7 73 -24q28 -16 49.5 -49t21.5 -65q0 -20 -9 -35q-16 -21 -41 -21q-20 0 -35 13q-7 8 -15 38q-10 43 -75 43q-59 0 -98 -33.5t-39 -83.5q0 -47 36.5 -80t90.5 -33q56 0 105 36 q18 12 34 12q20 0 35 -15.5t15 -35.5q0 -31 -41 -57.5t-107 -37.5v-77q0 -32 -9 -45q-16 -21 -41 -21q-27 0 -43 24q-7 11 -7 42v81q-77 19 -122.5 75.5t-45.5 133.5z" />
<glyph unicode="&#xa3;" d="M33 293q0 29 24 43q11 7 42 7h44q-17 51 -17 89q0 73 48.5 119.5t124.5 46.5q59 0 108.5 -32.5t49.5 -70.5q0 -21 -14.5 -36t-34.5 -15q-14 0 -22 4.5t-25 23.5q-23 26 -63 26q-31 0 -51.5 -17.5t-20.5 -43.5q0 -23 20 -94h68q33 0 46 -9q21 -16 21 -41q0 -27 -24 -43 q-13 -7 -43 -7h-45q1 -12 1 -27q0 -59 -23 -116h203q6 46 49 46q23 0 37 -15t14 -41q0 -44 -28 -67t-80 -23h-321q-32 0 -45 10q-21 15 -21 41q0 39 50 49q33 7 45 32q19 37 19 92q0 11 -1 19h-69q-33 0 -45 9q-21 16 -21 41z" />
<glyph unicode="&#xa4;" d="M73 115q0 20 26 47l32 34q-25 49 -25 96q0 49 25 96l-33 32q-25 25 -25 49q0 20 15 35t36 15q20 0 47 -26l32 -31q48 26 97 26q47 0 97 -27l31 30q26 26 47 26t36 -15t15 -36q0 -13 -4.5 -21t-21.5 -25l-31 -32q25 -49 25 -96q0 -48 -26 -96l33 -34q26 -26 26 -46 q0 -21 -15.5 -36.5t-36.5 -15.5q-13 0 -21 4.5t-25 21.5l-34 32q-47 -25 -95 -25t-96 26l-33 -32q-17 -17 -25.5 -22t-21.5 -5q-21 0 -36 15t-15 36zM206 293q0 -39 28 -67.5t66 -28.5t66 28.5t28 66.5q0 41 -27 68.5t-67 27.5q-39 0 -66.5 -27.5t-27.5 -67.5z" />
<glyph unicode="&#xa5;" d="M19 580h120l162 -232l166 232h117l-209 -299h72q31 0 31 -28t-31 -28h-97v-34h97q31 0 31 -28t-31 -28h-97v-135h-100v135h-97q-31 0 -31 28t31 28h97v34h-97q-31 0 -31 28t31 28h72z" />
<glyph unicode="&#xa6;" d="M250 -87v203q0 33 9 46q17 20 41 20q29 0 43 -24q7 -13 7 -42v-203q0 -32 -9 -45q-16 -21 -41 -21q-27 0 -43 24q-7 11 -7 42zM250 353v203q0 33 9 45q16 21 41 21q50 0 50 -66v-203q0 -32 -9 -45q-16 -21 -41 -21q-29 0 -43 24q-7 11 -7 42z" />
<glyph unicode="&#xa7;" d="M36 283q0 91 101 119q-5 15 -5 30q0 59 42 103q44 48 120 48h225v-91l-232 1q-29 0 -49.5 -15.5t-20.5 -37.5q0 -37 107 -98l92 -51q87 -49 117.5 -82t30.5 -80q0 -46 -26.5 -77t-75.5 -42q5 -21 5 -38q0 -51 -38 -95q-43 -47 -117 -47h-231v88h233q27 0 47 16t20 37 q0 39 -105 98l-106 61q-75 43 -104.5 76.5t-29.5 76.5zM132 292q0 -37 86 -87l103 -58q65 -40 86 -59h17q19 1 31.5 10t12.5 23q0 37 -97 93l-99 57q-38 21 -80 55q-60 0 -60 -34z" />
<glyph unicode="&#xa8;" d="M136 594q0 25 17.5 42.5t42.5 17.5t42.5 -17.5t17.5 -43.5q0 -24 -17.5 -41.5t-42.5 -17.5t-42.5 17.5t-17.5 42.5zM344 594q0 25 17.5 42.5t42.5 17.5t42.5 -17.5t17.5 -43.5q0 -24 -17.5 -41.5t-42.5 -17.5t-42.5 17.5t-17.5 42.5z" />
<glyph unicode="&#xa9;" d="M-7 292q0 127 89.5 216.5t216.5 89.5q84 0 154.5 -41t111.5 -111.5t41 -153.5q0 -128 -90 -217.5t-220 -89.5q-124 0 -213.5 90.5t-89.5 216.5zM66 292q0 -96 68 -165t163 -69q99 0 167.5 68t68.5 166q0 97 -68.5 165t-164.5 68q-97 0 -165.5 -68t-68.5 -165zM135 269v36 q0 69 44.5 115t111.5 46q41 0 79 -19q28 -12 44 -36.5t16 -47.5q0 -17 -8.5 -28t-25.5 -11q-10 0 -17.5 4t-11.5 11.5t-7 20.5q-1 9 -10.5 17t-24.5 13t-32 5q-38 0 -62.5 -25.5t-24.5 -65.5v-34q0 -37 26.5 -59t70.5 -22q29 0 43.5 5.5t31.5 23.5q11 11 25 11t25 -11 t11 -25q0 -19 -19.5 -36.5t-51 -28t-66.5 -10.5q-47 0 -85.5 19.5t-60 54t-21.5 77.5z" />
<glyph unicode="&#xaa;" d="M118 369q0 34 28 65q47 53 146 53q26 0 62 -5v8q0 27 -58 27q-35 0 -79 -11q-18 -5 -28 -5q-16 0 -27 11.5t-11 28.5q0 24 24 34q57 20 117 20q67 0 103.5 -27.5t36.5 -77.5v-128h6q51 0 51 -39t-50 -39h-85v11q-55 -22 -108 -22t-90.5 28t-37.5 68zM124 227 q0 19 10.5 25.5t41.5 6.5h255q52 0 52 -38q0 -39 -51 -39h-256q-33 0 -42.5 8t-9.5 37zM209 374q0 -10 12 -16t31 -6q57 0 102 31v27q-37 7 -66 7q-32 0 -55.5 -13t-23.5 -30z" />
<glyph unicode="&#xab;" d="M33 218l248 184q17 13 29 13q13 0 22.5 -9t9.5 -21q0 -14 -16 -27l-151 -140l151 -141q16 -15 16 -27t-10 -21t-23 -9q-11 0 -28 13zM262 218l248 184q17 13 29 13q13 0 22.5 -9t9.5 -21q0 -14 -16 -27l-151 -140l151 -141q16 -15 16 -27t-10 -21t-23 -9q-11 0 -28 13z " />
<glyph unicode="&#xac;" d="M42 395q0 29 24 43q10 7 42 7h357v-264q0 -32 -9 -45q-16 -21 -41 -21q-29 0 -43 24q-7 13 -7 42v164h-257q-34 0 -45 10q-21 15 -21 40z" />
<glyph unicode="&#xad;" d="M42 279q0 27 24 43q10 7 42 7h384q33 0 46 -9q20 -15 20 -41q0 -29 -24 -43q-11 -7 -42 -7h-384q-33 0 -45 9q-21 16 -21 41z" />
<glyph unicode="&#xae;" d="M-7 292q0 126 90 216t217 90q126 0 216 -89.5t90 -216.5q0 -128 -90 -217.5t-220 -89.5q-124 0 -213.5 90.5t-89.5 216.5zM66 292q0 -96 68 -165t163 -69q99 0 167.5 68t68.5 166q0 96 -68.5 164.5t-164.5 68.5q-97 0 -165.5 -68.5t-68.5 -164.5zM197 126v332h95 q56 0 91.5 -29t35.5 -75q0 -28 -16.5 -51.5t-44.5 -36.5q57 -52 78 -140h-73q-9 36 -33.5 73t-45.5 47h-15v-120h-72zM269 316h25q23 0 38.5 11t15.5 28q0 14 -14.5 23t-39.5 9h-25v-71z" />
<glyph unicode="&#xaf;" d="M125 586q0 40 53 40h244q32 0 42 -11q11 -13 11 -29q0 -40 -53 -40h-244q-31 0 -42 12q-11 15 -11 28z" />
<glyph unicode="&#xb0;" d="M125 420q0 73 51 124.5t124 51.5t124 -51.5t51 -124.5q0 -74 -51.5 -125.5t-125.5 -51.5q-71 0 -122 52t-51 125zM186 420q0 -47 33.5 -81.5t79.5 -34.5q48 0 81.5 34t33.5 82q0 47 -33.5 81t-80.5 34t-80.5 -34t-33.5 -81z" />
<glyph unicode="&#xb1;" d="M42 50q0 28 24 43q10 7 42 7h384q32 0 45 -9q21 -16 21 -41q0 -29 -24 -43q-11 -7 -42 -7h-384q-34 0 -45 10q-21 15 -21 40zM42 380q0 28 24 43q10 7 42 7h142v128q0 34 10 45q15 21 40 21q29 0 43 -24q7 -10 7 -42v-128h141q33 0 46 -9q21 -16 21 -41q0 -29 -24 -43 q-11 -7 -43 -7h-141v-100q0 -32 -9 -45q-16 -21 -41 -21q-28 0 -43 24q-7 13 -7 42v100h-142q-34 0 -45 10q-21 15 -21 40z" />
<glyph unicode="&#xb2;" d="M149 247v68q139 115 174 149.5t35 55.5t-18.5 35.5t-46.5 14.5q-37 0 -56 -24q-6 -7 -12 -26q-7 -20 -30 -20q-14 0 -24 9.5t-10 23.5q0 15 10.5 35t26.5 34q40 35 96 35t93.5 -34t37.5 -86q0 -38 -30 -73.5t-142 -129.5h176v-67h-280z" />
<glyph unicode="&#xb3;" d="M157 292q0 14 9.5 24t23.5 10q11 0 22 -8q19 -13 71 -13q92 0 92 52q0 34 -44 54q-14 6 -45 7q-34 3 -34 33q0 14 10 23.5t24 9.5h25q20 0 35.5 13.5t15.5 30.5q0 19 -17 30.5t-46 11.5q-43 0 -67 -27q-10 -10 -24 -10q-13 0 -23 10t-10 24q0 28 38.5 49t88.5 21 q55 0 91 -30.5t36 -77.5q0 -49 -48 -79q-2 -1 -3 -2q64 -33 64 -93q0 -55 -46 -89q-38 -28 -111 -28q-59 0 -93.5 14.5t-34.5 39.5z" />
<glyph unicode="&#xb4;" d="M250 532q0 18 23 37l133 111q20 16 32 16q16 0 26.5 -10.5t10.5 -26.5q0 -17 -23 -35l-133 -112q-20 -16 -32 -16q-15 0 -26 11t-11 25z" />
<glyph unicode="&#xb6;" d="M49 361v46q0 73 75 124.5t181 51.5h197q54 0 54 -39t-54 -39h-34v-679h-76v679h-44v-679h-78v359q-97 10 -159 59.5t-62 116.5zM162 361q0 -34 29 -59t79 -36v234q-50 -11 -79 -36t-29 -59v-44z" />
<glyph unicode="&#xb7;" d="M225 280q0 27 19.5 46.5t46.5 19.5h18q28 0 47 -19t19 -47t-19 -47t-47 -19h-18q-27 0 -46.5 19.5t-19.5 46.5z" />
<glyph unicode="&#xb8;" d="M180 -166q0 14 10.5 24.5t24.5 10.5q9 0 29 -11q31 -17 57 -17q36 0 36 25q0 34 -53 34q-9 0 -22 -2v102h70v-41q75 -16 75 -91q0 -43 -30 -70t-77 -27q-38 0 -79 17t-41 46z" />
<glyph unicode="&#xb9;" d="M168 570q0 14 7.5 21.5t26.5 12.5l132 34v-391h-67v304l-48 -12q-15 -4 -20 -4q-13 0 -22 10.5t-9 24.5z" />
<glyph unicode="&#xba;" d="M122 221q0 21 18 32q10 6 34 6h254q52 0 52 -38q0 -39 -52 -39h-254q-52 0 -52 39zM131 430q0 68 50 116.5t120 48.5q71 0 120.5 -48.5t49.5 -118.5q0 -64 -50 -109.5t-120 -45.5q-71 0 -120.5 46t-49.5 111zM210 430q0 -31 27.5 -55t63.5 -24t63.5 24t27.5 55 q0 35 -27 61t-64 26t-64 -26t-27 -61z" />
<glyph unicode="&#xbb;" d="M33 50q0 14 16 27l151 140l-151 141q-16 15 -16 27t10 21t23 9q11 0 28 -13l247 -185l-247 -184q-17 -13 -29 -13q-13 0 -22.5 9t-9.5 21zM263 50q0 14 16 27l151 140l-151 141q-16 15 -16 27t10 21t23 9q11 0 28 -13l247 -185l-247 -184q-17 -13 -29 -13q-13 0 -22.5 9 t-9.5 21z" />
<glyph unicode="&#xbc;" d="M-32 570q0 14 7.5 21.5t26.5 12.5l132 34v-391h-67v304l-48 -12q-15 -4 -20 -4q-13 0 -22 10.5t-9 24.5zM145 84q0 10 10 26l260 451q16 26 35 26q13 0 23.5 -10t10.5 -22q0 -9 -11 -27l-260 -451q-15 -26 -34 -26q-13 0 -23.5 10t-10.5 23zM362 83v55l146 242h84v-230 q37 -2 37 -33q0 -32 -37 -34v-83h-67v83h-163zM446 150h79v129z" />
<glyph unicode="&#xbd;" d="M-32 570q0 14 7.5 21.5t26.5 12.5l132 34v-391h-67v304l-48 -12q-15 -4 -20 -4q-13 0 -22 10.5t-9 24.5zM145 84q0 10 10 26l260 451q16 26 35 26q13 0 23.5 -10t10.5 -22q0 -9 -11 -27l-260 -451q-15 -26 -34 -26q-13 0 -23.5 10t-10.5 23zM349 0v68q139 115 174 149.5 t35 55.5t-18.5 35.5t-46.5 14.5q-36 0 -56 -24q-6 -7 -12 -26q-7 -20 -30 -20q-14 0 -24 9.5t-10 23.5q0 15 10.5 35t26.5 34q40 35 96 35t93.5 -34t37.5 -86q0 -38 -30 -73.5t-142 -129.5h176v-67h-280z" />
<glyph unicode="&#xbe;" d="M-43 292q0 14 9.5 24t23.5 10q11 0 22 -8q20 -13 71 -13q92 0 92 52q0 34 -44 54q-14 6 -45 7q-34 3 -34 33q0 14 10 23.5t24 9.5h25q20 0 35.5 13.5t15.5 30.5q0 19 -17 30.5t-46 11.5q-43 0 -67 -27q-10 -10 -24 -10q-13 0 -23 10t-10 24q0 28 38.5 49t88.5 21 q55 0 91 -30.5t36 -77.5q0 -49 -48 -79q-2 -1 -3 -2q64 -33 64 -93q0 -55 -46 -89q-38 -28 -111 -28q-59 0 -93.5 14.5t-34.5 39.5zM145 84q0 10 10 26l261 451q14 26 34 26q13 0 23.5 -10t10.5 -22q0 -9 -10 -27l-261 -451q-15 -26 -34 -26q-14 0 -24 10t-10 23zM362 83v55 l146 242h84v-230q37 -2 37 -33q0 -32 -37 -34v-83h-67v83h-163zM446 150h79v129z" />
<glyph unicode="&#xbf;" d="M83 -38q0 61 36.5 101t127.5 80q6 54 50 54q29 0 43 -24q7 -13 7 -42v-56q-96 -37 -130 -61.5t-34 -56.5q0 -37 30 -60.5t78 -23.5q55 0 105 24l100 -65q-72 -35 -114 -47t-90 -12q-93 0 -151 52.5t-58 136.5zM223 320q0 28 19 47t47 19h17q28 0 47.5 -19.5t19.5 -46.5 t-19.5 -46.5t-47.5 -19.5h-17q-28 0 -47 19t-19 47z" />
<glyph unicode="&#xc0;" d="M5 0l237 583h112l240 -583h-116l-62 158h-238l-62 -158h-111zM141 804q0 15 10.5 25.5t26.5 10.5q12 0 32 -16l133 -111q23 -19 23 -37q0 -14 -11 -25t-26 -11q-12 0 -32 16l-133 112q-23 18 -23 36zM218 258h157l-78 192z" />
<glyph unicode="&#xc1;" d="M5 0l237 583h112l240 -583h-116l-62 158h-238l-62 -158h-111zM208 676q0 18 23 37l133 111q20 16 32 16q16 0 26.5 -10.5t10.5 -26.5q0 -17 -23 -35l-133 -112q-20 -16 -32 -16q-15 0 -26 11t-11 25zM218 258h157l-78 192z" />
<glyph unicode="&#xc2;" d="M5 0l237 583h112l240 -583h-116l-62 158h-238l-62 -158h-111zM125 675q0 11 4 16.5t20 18.5l152 129l151 -129q24 -16 24 -35q0 -14 -10.5 -24.5t-23.5 -10.5t-29 13l-112 97l-113 -97q-16 -13 -28 -13q-14 0 -24.5 10.5t-10.5 24.5zM218 258h157l-78 192z" />
<glyph unicode="&#xc3;" d="M5 0l237 583h112l240 -583h-116l-62 158h-238l-62 -158h-111zM98 699q0 22 27 55q39 45 83 45q29 0 90 -38q44 -26 58 -26q11 0 17.5 5.5t23.5 28.5q21 30 39 30q13 0 22.5 -8.5t9.5 -19.5q0 -20 -29 -57q-38 -48 -80 -48q-34 0 -99 43q-32 21 -50 21q-13 0 -23 -8.5 t-32 -37.5q-11 -15 -26 -15q-13 0 -22 9t-9 21zM218 258h157l-78 192z" />
<glyph unicode="&#xc4;" d="M5 0l237 583h112l240 -583h-116l-62 158h-238l-62 -158h-111zM134 738q0 25 17.5 42.5t42.5 17.5t42.5 -17.5t17.5 -43.5q0 -24 -17.5 -41.5t-42.5 -17.5t-42.5 17.5t-17.5 42.5zM218 258h157l-78 192zM342 738q0 25 17.5 42.5t42.5 17.5t42.5 -17.5t17.5 -43.5 q0 -24 -17.5 -41.5t-42.5 -17.5t-42.5 17.5t-17.5 42.5z" />
<glyph unicode="&#xc5;" d="M5 0l237 583h112l240 -583h-116l-62 158h-238l-62 -158h-111zM160 751q0 49 36.5 84.5t86.5 35.5q51 0 87 -36t36 -86q0 -48 -36.5 -83.5t-86.5 -35.5t-86.5 36t-36.5 85zM213 751q0 -27 21 -47t49 -20t49 20t21 46q0 28 -20.5 48t-49.5 20q-28 0 -49 -20t-21 -47z M218 258h157l-78 192z" />
<glyph unicode="&#xc6;" d="M23 0l175 583h395v-100h-226v-141h119v-99h-119v-143h247v-100h-347v158h-93l-46 -158h-105zM203 259h64v212z" />
<glyph unicode="&#xc7;" d="M33 249v66q0 79 36 143.5t98.5 101.5t137.5 37q42 0 71.5 -7t70.5 -27q21 -10 40.5 -26.5t33 -35.5t21 -39.5t7.5 -38.5q0 -25 -14 -40.5t-36 -15.5q-21 0 -35 14q-9 9 -14 39q-4 18 -13.5 29.5t-30.5 23.5q-43 24 -97 24q-74 0 -125 -51.5t-51 -130.5v-64 q0 -75 53.5 -120t142.5 -45q73 0 111 23q11 6 38 34q16 16 36 16t35 -15t15 -36q0 -20 -20 -43t-53 -42q-57 -31 -154 -37v-28q75 -15 75 -90q0 -42 -30 -69.5t-75 -27.5q-59 0 -104 30q-18 13 -18 33q0 14 10.5 24.5t24.5 10.5q8 0 29 -11q28 -17 57 -17q36 0 36 25 q0 16 -13.5 25t-36.5 9q-8 0 -25 -2v93q-81 17 -130 52q-50 37 -77 91t-27 115z" />
<glyph unicode="&#xc8;" d="M94 0v583h434v-100h-334v-141h184v-99h-184v-143h356v-100h-456zM141 804q0 15 10.5 25.5t26.5 10.5q12 0 32 -16l133 -111q23 -19 23 -37q0 -14 -11 -25t-26 -11q-12 0 -32 16l-133 112q-23 18 -23 36z" />
<glyph unicode="&#xc9;" d="M94 0v583h434v-100h-334v-141h184v-99h-184v-143h356v-100h-456zM215 676q0 18 23 37l133 111q20 16 32 16q16 0 26.5 -10.5t10.5 -26.5q0 -17 -23 -35l-133 -112q-20 -16 -32 -16q-15 0 -26 11t-11 25z" />
<glyph unicode="&#xca;" d="M94 0v583h434v-100h-334v-141h184v-99h-184v-143h356v-100h-456zM116 675q0 11 4 16.5t20 18.5l152 129l151 -129q24 -16 24 -35q0 -14 -10.5 -24.5t-23.5 -10.5t-29 13l-112 97l-113 -97q-16 -13 -28 -13q-14 0 -24.5 10.5t-10.5 24.5z" />
<glyph unicode="&#xcb;" d="M94 0v583h434v-100h-334v-141h184v-99h-184v-143h356v-100h-456zM127 738q0 25 17.5 42.5t42.5 17.5t42.5 -17.5t17.5 -43.5q0 -24 -17.5 -41.5t-42.5 -17.5t-42.5 17.5t-17.5 42.5zM335 738q0 25 17.5 42.5t42.5 17.5t42.5 -17.5t17.5 -43.5q0 -24 -17.5 -41.5 t-42.5 -17.5t-42.5 17.5t-17.5 42.5z" />
<glyph unicode="&#xcc;" d="M151 804q0 15 10.5 25.5t26.5 10.5q12 0 32 -16l133 -111q23 -19 23 -37q0 -14 -11 -25t-26 -11q-12 0 -32 16l-133 112q-23 18 -23 36zM250 0v584h100v-584h-100z" />
<glyph unicode="&#xcd;" d="M250 0v584h100v-584h-100zM250 676q0 18 23 37l133 111q20 16 32 16q16 0 26.5 -10.5t10.5 -26.5q0 -17 -23 -35l-133 -112q-20 -16 -32 -16q-15 0 -26 11t-11 25z" />
<glyph unicode="&#xce;" d="M124 675q0 11 4 16.5t20 18.5l152 129l151 -129q24 -16 24 -35q0 -14 -10.5 -24.5t-23.5 -10.5t-29 13l-112 97l-113 -97q-16 -13 -28 -13q-14 0 -24.5 10.5t-10.5 24.5zM250 0v584h100v-584h-100z" />
<glyph unicode="&#xcf;" d="M136 738q0 25 17.5 42.5t42.5 17.5t42.5 -17.5t17.5 -43.5q0 -24 -17.5 -41.5t-42.5 -17.5t-42.5 17.5t-17.5 42.5zM250 0v584h100v-584h-100zM344 738q0 25 17.5 42.5t42.5 17.5t42.5 -17.5t17.5 -43.5q0 -24 -17.5 -41.5t-42.5 -17.5t-42.5 17.5t-17.5 42.5z" />
<glyph unicode="&#xd0;" d="M0 293q0 29 24 43q10 7 43 7h7v140q-61 0 -61 50q0 29 24 43q10 7 43 7h212q109 0 183.5 -80t74.5 -198v-47q0 -110 -70 -183q-71 -75 -196 -75h-205q-32 0 -45 10q-21 15 -21 40q0 24 16 37t45 13v143h-8q-32 0 -45 10q-21 15 -21 40zM174 100h111q45 0 73 10t51 34 q41 45 41 117v46q0 72 -45 125q-44 51 -121 51h-110v-140h74q32 0 45 -9q21 -15 21 -41q0 -50 -66 -50h-74v-143z" />
<glyph unicode="&#xd1;" d="M73 0v583h100l258 -392v392h100v-583h-99l-259 394v-394h-100zM114 699q0 22 27 55q39 45 83 45q29 0 90 -38q44 -26 58 -26q11 0 17.5 5.5t23.5 28.5q21 30 39 30q13 0 22.5 -8.5t9.5 -19.5q0 -20 -29 -57q-38 -48 -80 -48q-34 0 -99 43q-32 21 -50 21q-13 0 -23 -8.5 t-32 -37.5q-11 -15 -26 -15q-13 0 -22 9t-9 21z" />
<glyph unicode="&#xd2;" d="M21 292q0 126 82 215.5t197 89.5q103 0 185 -77q94 -90 94 -233q0 -123 -82.5 -212t-196.5 -89q-116 0 -197.5 89.5t-81.5 216.5zM121 292q0 -85 52.5 -145.5t126.5 -60.5q73 0 126 60t53 143q0 86 -52.5 147t-126.5 61q-73 0 -126 -60.5t-53 -144.5zM153 804 q0 15 10.5 25.5t26.5 10.5q12 0 32 -16l133 -111q23 -19 23 -37q0 -14 -11 -25t-26 -11q-12 0 -32 16l-133 112q-23 18 -23 36z" />
<glyph unicode="&#xd3;" d="M21 292q0 126 82 215.5t197 89.5q103 0 185 -77q94 -90 94 -233q0 -123 -82.5 -212t-196.5 -89q-116 0 -197.5 89.5t-81.5 216.5zM121 292q0 -85 52.5 -145.5t126.5 -60.5q73 0 126 60t53 143q0 86 -52.5 147t-126.5 61q-73 0 -126 -60.5t-53 -144.5zM221 676q0 18 23 37 l133 111q20 16 32 16q16 0 26.5 -10.5t10.5 -26.5q0 -17 -23 -35l-133 -112q-20 -16 -32 -16q-15 0 -26 11t-11 25z" />
<glyph unicode="&#xd4;" d="M21 292q0 126 82 215.5t197 89.5q103 0 185 -77q94 -90 94 -233q0 -123 -82.5 -212t-196.5 -89q-116 0 -197.5 89.5t-81.5 216.5zM121 292q0 -85 52.5 -145.5t126.5 -60.5q73 0 126 60t53 143q0 86 -52.5 147t-126.5 61q-73 0 -126 -60.5t-53 -144.5zM124 675 q0 11 4 16.5t20 18.5l152 129l151 -129q24 -16 24 -35q0 -14 -10.5 -24.5t-23.5 -10.5t-29 13l-112 97l-113 -97q-16 -13 -28 -13q-14 0 -24.5 10.5t-10.5 24.5z" />
<glyph unicode="&#xd5;" d="M21 292q0 126 82 215.5t197 89.5q103 0 185 -77q94 -90 94 -233q0 -123 -82.5 -212t-196.5 -89q-116 0 -197.5 89.5t-81.5 216.5zM121 292q0 -85 52.5 -145.5t126.5 -60.5q73 0 126 60t53 143q0 86 -52.5 147t-126.5 61q-73 0 -126 -60.5t-53 -144.5zM122 699q0 22 27 55 q39 45 83 45q29 0 90 -38q44 -26 58 -26q11 0 17.5 5.5t23.5 28.5q21 30 39 30q13 0 22.5 -8.5t9.5 -19.5q0 -20 -29 -57q-38 -48 -80 -48q-34 0 -99 43q-32 21 -50 21q-13 0 -23 -8.5t-32 -37.5q-11 -15 -26 -15q-13 0 -22 9t-9 21z" />
<glyph unicode="&#xd6;" d="M21 292q0 126 82 215.5t197 89.5q103 0 185 -77q94 -90 94 -233q0 -123 -82.5 -212t-196.5 -89q-116 0 -197.5 89.5t-81.5 216.5zM121 292q0 -85 52.5 -145.5t126.5 -60.5q73 0 126 60t53 143q0 86 -52.5 147t-126.5 61q-73 0 -126 -60.5t-53 -144.5zM136 738 q0 25 17.5 42.5t42.5 17.5t42.5 -17.5t17.5 -43.5q0 -24 -17.5 -41.5t-42.5 -17.5t-42.5 17.5t-17.5 42.5zM344 738q0 25 17.5 42.5t42.5 17.5t42.5 -17.5t17.5 -43.5q0 -24 -17.5 -41.5t-42.5 -17.5t-42.5 17.5t-17.5 42.5z" />
<glyph unicode="&#xd7;" d="M100 131q0 20 26 46l103 103l-103 103q-26 27 -26 47t15 35t35 15t47 -26l103 -103l103 103q27 26 47 26t35 -15t15 -35t-26 -47l-103 -103l103 -103q26 -26 26 -47q0 -20 -15 -35t-35 -15q-21 0 -47 26l-103 103l-103 -103q-27 -26 -47 -26t-35 15t-15 36z" />
<glyph unicode="&#xd8;" d="M9 -23q0 16 21 42l57 73q-67 88 -67 200q0 126 82 215.5t198 89.5q77 0 149 -48l46 58q14 19 23.5 25t23.5 6q20 0 34 -14t14 -34q0 -16 -20 -42l-52 -65q61 -80 61 -192q0 -126 -82 -215.5t-197 -89.5q-74 0 -141 42l-54 -68q-15 -19 -24 -24.5t-23 -5.5q-20 0 -34.5 14 t-14.5 33zM120 292q0 -64 32 -118l235 297q-44 26 -88 26q-73 0 -126 -60.5t-53 -144.5zM221 107q37 -21 79 -21q73 0 126 60.5t53 143.5q0 61 -27 110z" />
<glyph unicode="&#xd9;" d="M71 205v378h100v-387q0 -46 38 -78t91 -32t91 32t38 78v387h100v-378q0 -107 -84 -170q-64 -49 -145 -49t-145 49q-84 65 -84 170zM153 804q0 15 10.5 25.5t26.5 10.5q12 0 32 -16l133 -111q23 -19 23 -37q0 -14 -11 -25t-26 -11q-12 0 -32 16l-133 112q-23 18 -23 36z " />
<glyph unicode="&#xda;" d="M71 205v378h100v-387q0 -46 38 -78t91 -32t91 32t38 78v387h100v-378q0 -107 -84 -170q-64 -49 -145 -49t-145 49q-84 65 -84 170zM221 676q0 18 23 37l133 111q20 16 32 16q16 0 26.5 -10.5t10.5 -26.5q0 -17 -23 -35l-133 -112q-20 -16 -32 -16q-15 0 -26 11t-11 25z " />
<glyph unicode="&#xdb;" d="M71 205v378h100v-387q0 -46 38 -78t91 -32t91 32t38 78v387h100v-378q0 -107 -84 -170q-64 -49 -145 -49t-145 49q-84 65 -84 170zM124 675q0 11 4 16.5t20 18.5l152 129l151 -129q24 -16 24 -35q0 -14 -10.5 -24.5t-23.5 -10.5t-29 13l-112 97l-113 -97q-16 -13 -28 -13 q-14 0 -24.5 10.5t-10.5 24.5z" />
<glyph unicode="&#xdc;" d="M71 205v378h100v-387q0 -46 38 -78t91 -32t91 32t38 78v387h100v-378q0 -107 -84 -170q-64 -49 -145 -49t-145 49q-84 65 -84 170zM136 738q0 25 17.5 42.5t42.5 17.5t42.5 -17.5t17.5 -43.5q0 -24 -17.5 -41.5t-42.5 -17.5t-42.5 17.5t-17.5 42.5zM344 738 q0 25 17.5 42.5t42.5 17.5t42.5 -17.5t17.5 -43.5q0 -24 -17.5 -41.5t-42.5 -17.5t-42.5 17.5t-17.5 42.5z" />
<glyph unicode="&#xdd;" d="M15 583h120l165 -235l163 235h120l-233 -338v-245h-100v245zM224 676q0 18 23 37l133 111q20 16 32 16q16 0 26.5 -10.5t10.5 -26.5q0 -17 -23 -35l-133 -112q-20 -16 -32 -16q-15 0 -26 11t-11 25z" />
<glyph unicode="&#xde;" d="M95 0v583h100v-140h98q77 0 120.5 -13.5t74.5 -47.5q35 -38 35 -90q0 -53 -35 -91q-31 -34 -74.5 -47.5t-120.5 -13.5h-98v-140h-100zM195 240h131q50 0 72.5 12t22.5 39q0 28 -22.5 40t-72.5 12h-131v-103z" />
<glyph unicode="&#xdf;" d="M95 0v478q0 64 48.5 104.5t124.5 40.5t127 -48t51 -119q0 -50 -35 -91q118 -69 118 -200q0 -81 -42.5 -131t-112.5 -50q-52 0 -85.5 32t-33.5 81q0 28 13.5 43.5t36.5 15.5q21 0 31 -10t16 -33q6 -29 30 -29q21 0 34 22t13 58q0 56 -41 95q-37 36 -110 44q-55 6 -55 50 t53 49q32 4 45 13q25 16 25 44t-22 46t-56 18q-73 0 -73 -62v-461h-100z" />
<glyph unicode="&#xe0;" d="M42 119q0 49 39 93q68 76 203 76q45 0 104 -10v23q0 49 -93 49q-51 0 -116 -17q-25 -6 -40 -6q-21 0 -35 14.5t-14 36.5q0 32 30 42q85 30 172 30q92 0 144.5 -39t52.5 -109v-302h-101v23q-75 -39 -166 -39q-74 0 -127 39.5t-53 95.5zM137 660q0 15 10.5 25.5t26.5 10.5 q12 0 32 -16l133 -111q23 -19 23 -37q0 -14 -11 -25t-26 -11q-12 0 -32 16l-133 112q-23 18 -23 36zM148 123q0 -17 22 -28t54 -11q82 0 165 51v50q-63 11 -111 11q-51 0 -90.5 -22t-39.5 -51z" />
<glyph unicode="&#xe1;" d="M42 119q0 49 39 93q68 76 203 76q45 0 104 -10v23q0 49 -93 49q-51 0 -116 -17q-25 -6 -40 -6q-21 0 -35 14.5t-14 36.5q0 32 30 42q85 30 172 30q92 0 144.5 -39t52.5 -109v-302h-101v23q-75 -39 -166 -39q-74 0 -127 39.5t-53 95.5zM148 123q0 -17 22 -28t54 -11 q82 0 165 51v50q-63 11 -111 11q-51 0 -90.5 -22t-39.5 -51zM217 532q0 18 23 37l133 111q20 16 32 16q16 0 26.5 -10.5t10.5 -26.5q0 -17 -23 -35l-133 -112q-20 -16 -32 -16q-15 0 -26 11t-11 25z" />
<glyph unicode="&#xe2;" d="M42 119q0 49 39 93q68 76 203 76q45 0 104 -10v23q0 49 -93 49q-51 0 -116 -17q-25 -6 -40 -6q-21 0 -35 14.5t-14 36.5q0 32 30 42q85 30 172 30q92 0 144.5 -39t52.5 -109v-302h-101v23q-75 -39 -166 -39q-74 0 -127 39.5t-53 95.5zM114 532q0 11 4 16.5t20 18.5 l152 129l151 -129q24 -16 24 -35q0 -14 -10.5 -24.5t-23.5 -10.5t-29 13l-112 97l-113 -97q-16 -13 -28 -13q-14 0 -24.5 10.5t-10.5 24.5zM148 123q0 -17 22 -28t54 -11q82 0 165 51v50q-63 11 -111 11q-51 0 -90.5 -22t-39.5 -51z" />
<glyph unicode="&#xe3;" d="M42 119q0 49 39 93q68 76 203 76q45 0 104 -10v23q0 49 -93 49q-51 0 -116 -17q-25 -6 -40 -6q-21 0 -35 14.5t-14 36.5q0 32 30 42q85 30 172 30q92 0 144.5 -39t52.5 -109v-302h-101v23q-75 -39 -166 -39q-74 0 -127 39.5t-53 95.5zM108 556q0 22 27 55q39 45 83 45 q29 0 90 -38q44 -26 58 -26q11 0 17.5 5.5t23.5 28.5q21 30 39 30q13 0 22.5 -8.5t9.5 -19.5q0 -20 -29 -57q-38 -48 -80 -48q-34 0 -99 43q-32 21 -50 21q-13 0 -23 -8.5t-32 -37.5q-11 -15 -26 -15q-13 0 -22 9t-9 21zM148 123q0 -17 22 -28t54 -11q82 0 165 51v50 q-63 11 -111 11q-51 0 -90.5 -22t-39.5 -51z" />
<glyph unicode="&#xe4;" d="M42 119q0 49 39 93q68 76 203 76q45 0 104 -10v23q0 49 -93 49q-51 0 -116 -17q-25 -6 -40 -6q-21 0 -35 14.5t-14 36.5q0 32 30 42q85 30 172 30q92 0 144.5 -39t52.5 -109v-302h-101v23q-75 -39 -166 -39q-74 0 -127 39.5t-53 95.5zM125 594q0 25 17.5 42.5t42.5 17.5 t42.5 -17.5t17.5 -43.5q0 -24 -17.5 -41.5t-42.5 -17.5t-42.5 17.5t-17.5 42.5zM148 123q0 -17 22 -28t54 -11q82 0 165 51v50q-63 11 -111 11q-51 0 -90.5 -22t-39.5 -51zM333 594q0 25 17.5 42.5t42.5 17.5t42.5 -17.5t17.5 -43.5q0 -24 -17.5 -41.5t-42.5 -17.5 t-42.5 17.5t-17.5 42.5z" />
<glyph unicode="&#xe5;" d="M42 119q0 49 39 93q68 76 203 76q45 0 104 -10v23q0 49 -93 49q-51 0 -116 -17q-25 -6 -40 -6q-21 0 -35 14.5t-14 36.5q0 32 30 42q85 30 172 30q92 0 144.5 -39t52.5 -109v-302h-101v23q-75 -39 -166 -39q-74 0 -127 39.5t-53 95.5zM148 123q0 -17 22 -28t54 -11 q82 0 165 51v50q-63 11 -111 11q-51 0 -90.5 -22t-39.5 -51zM166 607q0 49 36.5 84.5t86.5 35.5q51 0 87 -36t36 -86q0 -48 -36.5 -83.5t-86.5 -35.5t-86.5 36t-36.5 85zM219 607q0 -27 21 -47t49 -20t49 20t21 46q0 28 -20.5 48t-49.5 20q-28 0 -49 -20t-21 -47z" />
<glyph unicode="&#xe6;" d="M-13 145q0 33 13.5 55.5t44.5 41.5q30 19 72 31.5t78 12.5q17 0 60 -5v20q0 21 -13.5 35t-34.5 14q-19 0 -90 -21q-12 -4 -23 -4q-20 0 -34 15t-14 36q0 36 41 50q74 24 120 24q66 0 116 -56q52 56 112 56q74 0 128 -69q48 -62 48 -163v-46h-251q13 -47 31.5 -67.5 t49.5 -20.5q30 0 68 17q41 17 57 17q20 0 33 -15t13 -37q0 -28 -25 -44q-26 -16 -67.5 -27t-77.5 -11q-53 0 -100 32q-14 -17 -37 -17q-21 0 -36 17q-51 -32 -110 -32q-78 0 -125 44t-47 117zM88 142q0 -26 19 -42t51 -16q43 0 97 46v59q-31 8 -56 8q-63 0 -98 -26 q-13 -11 -13 -29zM362 258h140q-6 39 -15 55q-8 17 -23.5 27t-31.5 10q-54 0 -70 -92z" />
<glyph unicode="&#xe7;" d="M54 207q0 107 71.5 175t184.5 68q80 0 144 -30q23 -11 43 -31.5t31.5 -45t11.5 -46.5q0 -25 -14 -40.5t-36 -15.5t-36 14q-9 7 -15 34q-5 24 -23 36q-41 25 -106 25q-74 0 -116 -43q-40 -40 -40 -100q0 -123 176 -123q66 0 105 13q10 3 16.5 6.5t12.5 8t21 16.5 q13 12 30 12q20 0 35 -15t15 -36q0 -40 -64 -73q-57 -28 -153 -32h-6v-26q75 -15 75 -91q0 -41 -30 -68.5t-75 -27.5q-26 0 -55 8.5t-49 21.5q-18 13 -18 33q0 14 10.5 24.5t24.5 10.5q9 0 29 -11q31 -17 57 -17q36 0 36 25q0 34 -56 34q-1 0 -19 -2v88q-3 0 -5 1 q-95 10 -152 66q-61 61 -61 154z" />
<glyph unicode="&#xe8;" d="M33 216q0 99 74.5 166.5t183.5 67.5q112 0 185.5 -68t73.5 -171v-39h-408q34 -88 164 -88q56 0 163 28q20 5 33 5q20 0 34 -14.5t14 -35.5q0 -29 -35 -45q-34 -15 -99.5 -26.5t-118.5 -11.5q-116 0 -190 65t-74 167zM145 260h294q-12 41 -52 65.5t-95 24.5t-95.5 -25 t-51.5 -65zM149 660q0 15 10.5 25.5t26.5 10.5q12 0 32 -16l133 -111q23 -19 23 -37q0 -14 -11 -25t-26 -11q-12 0 -32 16l-133 112q-23 18 -23 36z" />
<glyph unicode="&#xe9;" d="M33 216q0 99 74.5 166.5t183.5 67.5q112 0 185.5 -68t73.5 -171v-39h-408q34 -88 164 -88q56 0 163 28q20 5 33 5q20 0 34 -14.5t14 -35.5q0 -29 -35 -45q-34 -15 -99.5 -26.5t-118.5 -11.5q-116 0 -190 65t-74 167zM145 260h294q-12 41 -52 65.5t-95 24.5t-95.5 -25 t-51.5 -65zM229 532q0 18 23 37l133 111q20 16 32 16q16 0 26.5 -10.5t10.5 -26.5q0 -17 -23 -35l-133 -112q-20 -16 -32 -16q-15 0 -26 11t-11 25z" />
<glyph unicode="&#xea;" d="M33 216q0 99 74.5 166.5t183.5 67.5q112 0 185.5 -68t73.5 -171v-39h-408q34 -88 164 -88q56 0 163 28q20 5 33 5q20 0 34 -14.5t14 -35.5q0 -29 -35 -45q-34 -15 -99.5 -26.5t-118.5 -11.5q-116 0 -190 65t-74 167zM128 532q0 11 4 16.5t20 18.5l152 129l151 -129 q24 -16 24 -35q0 -14 -10.5 -24.5t-23.5 -10.5t-29 13l-112 97l-113 -97q-16 -13 -28 -13q-14 0 -24.5 10.5t-10.5 24.5zM145 260h294q-12 41 -52 65.5t-95 24.5t-95.5 -25t-51.5 -65z" />
<glyph unicode="&#xeb;" d="M33 216q0 99 74.5 166.5t183.5 67.5q112 0 185.5 -68t73.5 -171v-39h-408q34 -88 164 -88q56 0 163 28q20 5 33 5q20 0 34 -14.5t14 -35.5q0 -29 -35 -45q-34 -15 -99.5 -26.5t-118.5 -11.5q-116 0 -190 65t-74 167zM140 594q0 25 17.5 42.5t42.5 17.5t42.5 -17.5 t17.5 -43.5q0 -24 -17.5 -41.5t-42.5 -17.5t-42.5 17.5t-17.5 42.5zM145 260h294q-12 41 -52 65.5t-95 24.5t-95.5 -25t-51.5 -65zM348 594q0 25 17.5 42.5t42.5 17.5t42.5 -17.5t17.5 -43.5q0 -24 -17.5 -41.5t-42.5 -17.5t-42.5 17.5t-17.5 42.5z" />
<glyph unicode="&#xec;" d="M105 387q0 29 24 43q11 7 43 7h178v-437h-100v337h-78q-35 0 -46 10q-21 15 -21 40zM138 660q0 15 10.5 25.5t26.5 10.5q12 0 32 -16l133 -111q23 -19 23 -37q0 -14 -11 -25t-26 -11q-12 0 -32 16l-133 112q-23 18 -23 36z" />
<glyph unicode="&#xed;" d="M105 387q0 29 24 43q11 7 43 7h178v-437h-100v337h-78q-35 0 -46 10q-21 15 -21 40zM208 532q0 18 23 37l133 111q20 16 32 16q16 0 26.5 -10.5t10.5 -26.5q0 -17 -23 -35l-133 -112q-20 -16 -32 -16q-15 0 -26 11t-11 25z" />
<glyph unicode="&#xee;" d="M105 387q0 29 24 43q11 7 43 7h178v-437h-100v337h-78q-35 0 -46 10q-21 15 -21 40zM108 532q0 11 4 16.5t20 18.5l152 129l151 -129q24 -16 24 -35q0 -14 -10.5 -24.5t-23.5 -10.5t-29 13l-112 97l-113 -97q-16 -13 -28 -13q-14 0 -24.5 10.5t-10.5 24.5z" />
<glyph unicode="&#xef;" d="M105 387q0 29 24 43q11 7 43 7h178v-437h-100v337h-78q-35 0 -46 10q-21 15 -21 40zM119 594q0 25 17.5 42.5t42.5 17.5t42.5 -17.5t17.5 -43.5q0 -24 -17.5 -41.5t-42.5 -17.5t-42.5 17.5t-17.5 42.5zM327 594q0 25 17.5 42.5t42.5 17.5t42.5 -17.5t17.5 -43.5 q0 -24 -17.5 -41.5t-42.5 -17.5t-42.5 17.5t-17.5 42.5z" />
<glyph unicode="&#xf0;" d="M42 211q0 96 71.5 164t172.5 68q26 0 46.5 -4t43 -14t54.5 -29q-63 79 -137 122l-92 -50q-21 -12 -32 -12q-13 0 -21.5 10.5t-8.5 26.5q0 10 4 15t20 14l50 29q-6 2 -20 8t-19 9l-16 5q-26 9 -26 31q0 14 12 25t28 11q34 0 99 -31l28 -13l77 41q18 9 33 9q13 0 22 -9.5 t9 -23.5q0 -19 -23 -30l-45 -25q97 -67 141.5 -145.5t44.5 -179.5q0 -115 -69 -178q-79 -71 -189 -71q-107 0 -182.5 66.5t-75.5 160.5zM144 212q0 -53 45.5 -90.5t110.5 -37.5q64 0 110 37t46 89q0 59 -45 99.5t-111 40.5q-65 0 -110.5 -40t-45.5 -98z" />
<glyph unicode="&#xf1;" d="M96 0v437h99v-48q36 34 66 47.5t71 13.5q68 0 119 -37q59 -44 59 -131v-282h-100v278q0 72 -90 72q-35 0 -62.5 -15t-62.5 -53v-282h-99zM109 556q0 22 27 55q39 45 83 45q29 0 90 -38q44 -26 58 -26q11 0 17.5 5.5t23.5 28.5q21 30 39 30q13 0 22.5 -8.5t9.5 -19.5 q0 -20 -29 -57q-38 -48 -80 -48q-34 0 -99 43q-32 21 -50 21q-13 0 -23 -8.5t-32 -37.5q-11 -15 -26 -15q-13 0 -22 9t-9 21z" />
<glyph unicode="&#xf2;" d="M42 217q0 99 75 166t186 67q106 0 180.5 -68t74.5 -165q0 -98 -75 -165.5t-183 -67.5t-183 67.5t-75 165.5zM142 217q0 -56 45.5 -94.5t112.5 -38.5t112.5 38.5t45.5 94.5t-45.5 94.5t-110.5 38.5q-68 0 -114 -38t-46 -95zM148 660q0 15 10.5 25.5t26.5 10.5q12 0 32 -16 l133 -111q23 -19 23 -37q0 -14 -11 -25t-26 -11q-12 0 -32 16l-133 112q-23 18 -23 36z" />
<glyph unicode="&#xf3;" d="M42 217q0 99 75 166t186 67q106 0 180.5 -68t74.5 -165q0 -98 -75 -165.5t-183 -67.5t-183 67.5t-75 165.5zM142 217q0 -56 45.5 -94.5t112.5 -38.5t112.5 38.5t45.5 94.5t-45.5 94.5t-110.5 38.5q-68 0 -114 -38t-46 -95zM228 532q0 18 23 37l133 111q20 16 32 16 q16 0 26.5 -10.5t10.5 -26.5q0 -17 -23 -35l-133 -112q-20 -16 -32 -16q-15 0 -26 11t-11 25z" />
<glyph unicode="&#xf4;" d="M42 217q0 99 75 166t186 67q106 0 180.5 -68t74.5 -165q0 -98 -75 -165.5t-183 -67.5t-183 67.5t-75 165.5zM125 532q0 11 4 16.5t20 18.5l152 129l151 -129q24 -16 24 -35q0 -14 -10.5 -24.5t-23.5 -10.5t-29 13l-112 97l-113 -97q-16 -13 -28 -13q-14 0 -24.5 10.5 t-10.5 24.5zM142 217q0 -56 45.5 -94.5t112.5 -38.5t112.5 38.5t45.5 94.5t-45.5 94.5t-110.5 38.5q-68 0 -114 -38t-46 -95z" />
<glyph unicode="&#xf5;" d="M42 217q0 99 75 166t186 67q106 0 180.5 -68t74.5 -165q0 -98 -75 -165.5t-183 -67.5t-183 67.5t-75 165.5zM123 556q0 22 27 55q39 45 83 45q29 0 90 -38q44 -26 58 -26q11 0 17.5 5.5t23.5 28.5q21 30 39 30q13 0 22.5 -8.5t9.5 -19.5q0 -20 -29 -57q-38 -48 -80 -48 q-34 0 -99 43q-31 21 -50 21q-13 0 -23 -8.5t-32 -37.5q-11 -15 -26 -15q-13 0 -22 9t-9 21zM142 217q0 -56 45.5 -94.5t112.5 -38.5t112.5 38.5t45.5 94.5t-45.5 94.5t-110.5 38.5q-68 0 -114 -38t-46 -95z" />
<glyph unicode="&#xf6;" d="M42 217q0 99 75 166t186 67q106 0 180.5 -68t74.5 -165q0 -98 -75 -165.5t-183 -67.5t-183 67.5t-75 165.5zM136 594q0 25 17.5 42.5t42.5 17.5t42.5 -17.5t17.5 -43.5q0 -24 -17.5 -41.5t-42.5 -17.5t-42.5 17.5t-17.5 42.5zM142 217q0 -56 45.5 -94.5t112.5 -38.5 t112.5 38.5t45.5 94.5t-45.5 94.5t-110.5 38.5q-68 0 -114 -38t-46 -95zM344 594q0 25 17.5 42.5t42.5 17.5t42.5 -17.5t17.5 -43.5q0 -24 -17.5 -41.5t-42.5 -17.5t-42.5 17.5t-17.5 42.5z" />
<glyph unicode="&#xf7;" d="M42 280q0 28 24 43q10 7 42 7h384q32 0 45 -9q21 -16 21 -41q0 -29 -24 -43q-11 -7 -42 -7h-384q-34 0 -45 10q-21 15 -21 40zM225 94q0 29 20.5 47.5t54.5 18.5t54.5 -18t20.5 -49q0 -29 -20.5 -47t-54.5 -18t-54.5 18.5t-20.5 47.5zM225 466q0 29 20.5 47.5t54.5 18.5 t54.5 -18t20.5 -49q0 -29 -20.5 -47t-54.5 -18t-54.5 18.5t-20.5 47.5z" />
<glyph unicode="&#xf8;" d="M23 -22q0 19 25 44l48 50q-54 67 -54 145q0 97 74.5 165t181.5 68q75 0 134 -31l48 49q26 26 46 26t33.5 -14t13.5 -33q0 -21 -25 -45l-42 -43q52 -66 52 -142q0 -98 -75 -165.5t-183 -67.5q-66 0 -128 30l-56 -58q-26 -26 -45 -26q-20 0 -34 14t-14 34zM142 217 q0 -38 25 -72l190 197q-34 8 -57 8q-67 0 -112.5 -38.5t-45.5 -94.5zM247 91q25 -7 52 -7q67 0 113 38.5t46 94.5q0 34 -22 69z" />
<glyph unicode="&#xf9;" d="M95 156v281h100v-278q0 -72 88 -72q38 0 63 13.5t64 54.5v282h100v-437h-100v48q-37 -35 -66.5 -48t-70.5 -13q-70 0 -119 37q-59 44 -59 132zM146 660q0 15 10.5 25.5t26.5 10.5q12 0 32 -16l133 -111q23 -19 23 -37q0 -14 -11 -25t-26 -11q-12 0 -32 16l-133 112 q-23 18 -23 36z" />
<glyph unicode="&#xfa;" d="M95 156v281h100v-278q0 -72 88 -72q38 0 63 13.5t64 54.5v282h100v-437h-100v48q-37 -35 -66.5 -48t-70.5 -13q-70 0 -119 37q-59 44 -59 132zM216 532q0 18 23 37l133 111q20 16 32 16q16 0 26.5 -10.5t10.5 -26.5q0 -17 -23 -35l-133 -112q-20 -16 -32 -16 q-15 0 -26 11t-11 25z" />
<glyph unicode="&#xfb;" d="M95 156v281h100v-278q0 -72 88 -72q38 0 63 13.5t64 54.5v282h100v-437h-100v48q-37 -35 -66.5 -48t-70.5 -13q-70 0 -119 37q-59 44 -59 132zM120 532q0 11 4 16.5t20 18.5l152 129l151 -129q24 -16 24 -35q0 -14 -10.5 -24.5t-23.5 -10.5t-29 13l-112 97l-113 -97 q-16 -13 -28 -13q-14 0 -24.5 10.5t-10.5 24.5z" />
<glyph unicode="&#xfc;" d="M95 156v281h100v-278q0 -72 88 -72q38 0 63 13.5t64 54.5v282h100v-437h-100v48q-37 -35 -66.5 -48t-70.5 -13q-70 0 -119 37q-59 44 -59 132zM131 594q0 25 17.5 42.5t42.5 17.5t42.5 -17.5t17.5 -43.5q0 -24 -17.5 -41.5t-42.5 -17.5t-42.5 17.5t-17.5 42.5zM339 594 q0 25 17.5 42.5t42.5 17.5t42.5 -17.5t17.5 -43.5q0 -24 -17.5 -41.5t-42.5 -17.5t-42.5 17.5t-17.5 42.5z" />
<glyph unicode="&#xfd;" d="M18 437h115l165 -323l174 323h107l-334 -642h-109l106 208zM250 532q0 18 23 37l133 111q20 16 32 16q16 0 26.5 -10.5t10.5 -26.5q0 -17 -23 -35l-133 -112q-20 -16 -32 -16q-15 0 -26 11t-11 25z" />
<glyph unicode="&#xfe;" d="M74 -205v829h100v-232q37 32 72 45t82 13q104 0 173.5 -64.5t69.5 -161.5q0 -92 -69 -153t-173 -61q-82 0 -155 56v-271h-100zM174 231q0 -53 41.5 -87t107.5 -34q65 0 106.5 34t41.5 86q0 25 -13 50t-35 41q-38 29 -100 29q-63 0 -101 -29q-22 -16 -35 -41t-13 -49z" />
<glyph unicode="&#xff;" d="M18 437h115l165 -323l174 323h107l-334 -642h-109l106 208zM136 594q0 25 17.5 42.5t42.5 17.5t42.5 -17.5t17.5 -43.5q0 -24 -17.5 -41.5t-42.5 -17.5t-42.5 17.5t-17.5 42.5zM344 594q0 25 17.5 42.5t42.5 17.5t42.5 -17.5t17.5 -43.5q0 -24 -17.5 -41.5t-42.5 -17.5 t-42.5 17.5t-17.5 42.5z" />
<glyph unicode="&#x152;" d="M-20 292q0 127 78.5 209t200.5 82h334l-2 -100h-225v-141h118v-99h-118v-143h246v-100h-353q-122 0 -200.5 82.5t-78.5 209.5zM80 291q0 -50 24 -97t62 -70q40 -24 100 -24v383q-71 -1 -111 -31q-34 -25 -54.5 -69.5t-20.5 -91.5z" />
<glyph unicode="&#x153;" d="M-11 212q0 100 52.5 169t128.5 69q77 0 133 -80q53 80 133 80q68 0 121 -61q55 -61 55 -173v-45h-252q20 -87 84 -87q32 0 96 28q13 5 24 5q20 0 34.5 -15t14.5 -37q0 -32 -37 -51q-25 -12 -66.5 -21t-71.5 -9q-83 0 -135 74q-54 -74 -132 -74q-76 0 -129 66.5t-53 161.5 zM89 216q0 -54 24.5 -93t58.5 -39q35 0 59.5 38.5t24.5 92.5q0 56 -24.5 95t-59.5 39q-34 0 -58.5 -39t-24.5 -94zM363 257h141q-18 92 -70 92q-29 0 -45 -24.5t-26 -67.5z" />
<glyph unicode="&#x178;" d="M15 583h120l165 -235l163 235h120l-233 -338v-245h-100v245zM136 738q0 25 17.5 42.5t42.5 17.5t42.5 -17.5t17.5 -43.5q0 -24 -17.5 -41.5t-42.5 -17.5t-42.5 17.5t-17.5 42.5zM344 738q0 25 17.5 42.5t42.5 17.5t42.5 -17.5t17.5 -43.5q0 -24 -17.5 -41.5t-42.5 -17.5 t-42.5 17.5t-17.5 42.5z" />
<glyph unicode="&#x2c6;" d="M125 532q0 11 4 16.5t20 18.5l152 129l151 -129q24 -16 24 -35q0 -14 -10.5 -24.5t-23.5 -10.5t-29 13l-112 97l-113 -97q-16 -13 -28 -13q-14 0 -24.5 10.5t-10.5 24.5z" />
<glyph unicode="&#x2dc;" d="M115 556q0 22 27 55q39 45 83 45q29 0 90 -38q44 -26 58 -26q11 0 17.5 5.5t23.5 28.5q21 30 39 30q13 0 22.5 -8.5t9.5 -19.5q0 -20 -29 -57q-38 -48 -80 -48q-34 0 -99 43q-32 21 -50 21q-13 0 -23 -8.5t-32 -37.5q-11 -15 -26 -15q-13 0 -22 9t-9 21z" />
<glyph unicode="&#x2000;" horiz-adv-x="435" />
<glyph unicode="&#x2001;" horiz-adv-x="871" />
<glyph unicode="&#x2002;" horiz-adv-x="435" />
<glyph unicode="&#x2003;" horiz-adv-x="871" />
<glyph unicode="&#x2004;" horiz-adv-x="290" />
<glyph unicode="&#x2005;" horiz-adv-x="217" />
<glyph unicode="&#x2006;" horiz-adv-x="145" />
<glyph unicode="&#x2007;" horiz-adv-x="145" />
<glyph unicode="&#x2008;" horiz-adv-x="108" />
<glyph unicode="&#x2009;" horiz-adv-x="174" />
<glyph unicode="&#x200a;" horiz-adv-x="48" />
<glyph unicode="&#x2010;" d="M42 279q0 27 24 43q10 7 42 7h384q33 0 46 -9q20 -15 20 -41q0 -29 -24 -43q-11 -7 -42 -7h-384q-33 0 -45 9q-21 16 -21 41z" />
<glyph unicode="&#x2011;" d="M42 279q0 27 24 43q10 7 42 7h384q33 0 46 -9q20 -15 20 -41q0 -29 -24 -43q-11 -7 -42 -7h-384q-33 0 -45 9q-21 16 -21 41z" />
<glyph unicode="&#x2012;" d="M42 279q0 27 24 43q10 7 42 7h384q33 0 46 -9q20 -15 20 -41q0 -29 -24 -43q-11 -7 -42 -7h-384q-33 0 -45 9q-21 16 -21 41z" />
<glyph unicode="&#x2013;" d="M42 279q0 27 24 43q10 7 42 7h384q33 0 46 -9q20 -15 20 -41q0 -29 -24 -43q-11 -7 -42 -7h-384q-33 0 -45 9q-21 16 -21 41z" />
<glyph unicode="&#x2014;" d="M-29 279q0 29 24 43q11 7 42 7h526q33 0 45 -9q21 -15 21 -41q0 -29 -24 -43q-11 -7 -42 -7h-526q-33 0 -45 9q-21 16 -21 41z" />
<glyph unicode="&#x2018;" d="M249 602h132l69 -207q3 -15 3 -19q0 -11 -9.5 -19.5t-21.5 -8.5q-17 0 -32 24z" />
<glyph unicode="&#x2019;" d="M147 359q0 8 3 19l69 245h132l-141 -268q-12 -24 -32 -24q-13 0 -22 8.5t-9 19.5z" />
<glyph unicode="&#x201a;" d="M147 -130q0 8 3 19l69 245h132l-141 -268q-12 -24 -32 -24q-13 0 -22 8.5t-9 19.5z" />
<glyph unicode="&#x201c;" d="M98 602h132l69 -207q3 -15 3 -19q0 -11 -9.5 -19.5t-21.5 -8.5q-17 0 -32 24zM298 602h132l69 -207q3 -15 3 -19q0 -11 -9.5 -19.5t-21.5 -8.5q-17 0 -32 24z" />
<glyph unicode="&#x201d;" d="M87 376q0 10 3 19l69 207h132l-141 -230q-15 -24 -32 -24q-12 0 -21.5 8.5t-9.5 19.5zM287 376q0 10 3 19l69 207h132l-141 -230q-15 -24 -32 -24q-12 0 -21.5 8.5t-9.5 19.5z" />
<glyph unicode="&#x201e;" d="M87 -92q0 10 3 19l69 207h132l-141 -230q-15 -24 -32 -24q-12 0 -21.5 8.5t-9.5 19.5zM287 -92q0 10 3 19l69 207h132l-141 -230q-15 -24 -32 -24q-12 0 -21.5 8.5t-9.5 19.5z" />
<glyph unicode="&#x2022;" d="M150 304q0 62 44 105.5t105 43.5q63 0 106.5 -43.5t43.5 -107.5q0 -61 -44 -104.5t-106 -43.5t-105.5 44t-43.5 106z" />
<glyph unicode="&#x2026;" d="M25 51q0 27 19.5 46.5t46.5 19.5h18q28 0 47 -19t19 -47t-19 -47t-47 -19h-18q-27 0 -46.5 19.5t-19.5 46.5zM225 51q0 27 19.5 46.5t46.5 19.5h18q28 0 47 -19t19 -47t-19 -47t-47 -19h-18q-27 0 -46.5 19.5t-19.5 46.5zM425 51q0 27 19.5 46.5t46.5 19.5h18 q28 0 47 -19t19 -47t-19 -47t-47 -19h-18q-27 0 -46.5 19.5t-19.5 46.5z" />
<glyph unicode="&#x202f;" horiz-adv-x="174" />
<glyph unicode="&#x2039;" d="M33 218l248 184q17 13 29 13q13 0 22.5 -9t9.5 -21q0 -14 -16 -27l-151 -140l151 -141q16 -15 16 -27t-10 -21t-23 -9q-11 0 -28 13z" />
<glyph unicode="&#x203a;" d="M263 50q0 14 16 27l151 140l-151 141q-16 15 -16 27t10 21t23 9q11 0 28 -13l247 -185l-247 -184q-17 -13 -29 -13q-13 0 -22.5 9t-9.5 21z" />
<glyph unicode="&#x205f;" horiz-adv-x="217" />
<glyph unicode="&#x20ac;" d="M4 233q0 28 27 28h28v42h-28q-27 0 -27 28t27 28h31q12 104 80.5 171t162.5 67h2q66 0 126 -34q39 -22 64.5 -64t25.5 -79q0 -15 -5.5 -27t-15.5 -19t-23 -7q-20 0 -30.5 12.5t-14.5 40.5q-2 18 -10.5 29.5t-28.5 23.5q-38 24 -86 24q-52 0 -88.5 -37t-47.5 -101h195 q28 0 28 -28t-28 -28h-199v-42h172q27 0 27 -28t-27 -28h-167q12 -56 53 -87.5t102 -31.5t97 23q10 6 35 34q15 16 31 16q19 0 32.5 -15t13.5 -35q0 -36 -48 -73q-29 -23 -73 -36.5t-92 -13.5q-103 0 -174.5 59.5t-88.5 159.5h-31q-27 0 -27 28z" />
<glyph unicode="&#x2122;" d="M-33 510v73h290v-73h-109v-290h-73v290h-108zM302 220v363h88l53 -129l52 129h89v-363h-73v209l-56 -126h-19l-61 128v-211h-73z" />
<glyph unicode="&#xe000;" horiz-adv-x="435" d="M0 0v435h435v-435h-435z" />
</font>
</defs>
</svg>
